<?xml version="1.0" standalone="no"?>
<!DOCTYPE svg PUBLIC "-//W3C//DTD SVG 1.1//EN" "http://www.w3.org/Graphics/SVG/1.1/DTD/svg11.dtd" >
<svg xmlns="http://www.w3.org/2000/svg">
<metadata>
This is a custom SVG webfont generated by Font Squirrel.
Copyright   : This font drawn by, and copyright, Ben Weiner, 1999-2001. Modifications for version 2.0 copyright Ben Weiner, 2006-7. Licensed under the Open Font License (http://scripts.sil.org/OFL). See accompanying license and FONTLOG.
</metadata>
<defs>
<font id="webfont" horiz-adv-x="500" >
<font-face units-per-em="1000" ascent="800" descent="-200" />
<missing-glyph horiz-adv-x="273" />
<glyph unicode=" "  horiz-adv-x="273" />
<glyph unicode="&#x09;" horiz-adv-x="273" />
<glyph unicode="&#xa0;" horiz-adv-x="273" />
<glyph unicode="!" horiz-adv-x="235" d="M161 192h-85v514h85v-514zM113 -13q-24 0 -40 16.5t-16 40.5t16 41t40 17q25 0 42 -16.5t17 -41.5t-17 -41t-42 -16z" />
<glyph unicode="&#x22;" horiz-adv-x="329" d="M258 681q-48 0 -48 -56q0 -24 14.5 -76t27.5 -74h14q11 22 25 74t14 76q0 56 -47 56zM116 681q-47 0 -47 -56q0 -24 14.5 -76t27.5 -74h13q11 22 25 74t14 76q0 56 -47 56z" />
<glyph unicode="#" horiz-adv-x="536" d="M445 560l-80 -9v-78l79 8v-52l-80 -8v-97l-57 -6l1 97l-80 -9l-1 -97l-57 -6l1 97l-102 -11v52l102 11v79l-101 -11v52l102 11v75l57 6l-1 -75l81 8v75l58 8l-2 -77l80 9v-52zM228 537v-79l80 9v78z" />
<glyph unicode="$" horiz-adv-x="536" d="M314 -6v-94h-89v91q-102 14 -148 78l47 62q57 -67 139 -67q48 0 78.5 27.5t30.5 75.5t-47 75q-13 8 -89 35q-66 24 -96 53q-44 43 -44 118q0 57 36 98t93 55v89h89v-86q61 -11 120 -59l-44 -58q-56 47 -115 47q-89 0 -89 -91q0 -53 92 -84q100 -34 131 -60 q48 -41 48 -130q0 -145 -143 -175z" />
<glyph unicode="%" horiz-adv-x="536" d="M129 410q-52 0 -79.5 34t-27.5 87q0 50 29 84.5t78 34.5t78.5 -34.5t29.5 -84.5q0 -54 -27 -86q-28 -35 -81 -35zM107 -78l-74 25l377 681l69 -26zM401 -2q-55 0 -82.5 34t-27.5 90q0 51 30 86.5t80 35.5t79.5 -35.5t29.5 -86.5q0 -55 -26 -88q-29 -36 -83 -36zM128 594 q-22 0 -35 -23q-10 -19 -10 -43q0 -23 11 -42q13 -22 35 -22q46 0 46 64q0 24 -11 43q-14 23 -36 23zM400 186q-23 0 -36 -24q-10 -19 -10 -44q0 -64 47 -64q23 0 35 22q11 18 11 42q0 25 -11 44q-13 24 -36 24z" />
<glyph unicode="&#x26;" horiz-adv-x="555" d="M176 307q-78 -43 -78 -129q0 -53 35 -85t89 -32q66 0 111 57q-111 114 -157 189zM479 4q-39 13 -95 62q-73 -75 -157 -75q-87 0 -142 45q-60 49 -60 133q0 59 32 110t85 80q-45 62 -45 125q0 67 46.5 111.5t113.5 44.5q84 0 150 -72l-47 -48q-45 56 -110 56 q-74 0 -74 -77q0 -45 30 -104q53 22 111 24l14 -61q-53 0 -87 -16q78 -108 129 -160q14 50 14 70q0 23 -10 63l70 6q7 -45 7 -72q0 -55 -22 -120q26 -30 93 -63z" />
<glyph unicode="'" horiz-adv-x="194" d="M109 683q-48 0 -48 -56q0 -26 17 -79q17 -56 32 -73q16 26 30.5 74t14.5 78q0 56 -46 56z" />
<glyph unicode="(" horiz-adv-x="318" d="M174 -138q-128 221 -128 461q0 251 128 460l63 -30q-104 -242 -104 -430q0 -115 31 -223q15 -54 76 -208z" />
<glyph unicode=")" horiz-adv-x="316" d="M145 -138l-67 30q62 158 76 206q32 108 32 221q0 194 -105 434l64 30q124 -203 124 -457q0 -250 -124 -464z" />
<glyph unicode="*" horiz-adv-x="275" d="M219 475l-66 60l4 -89h-47l3 89l-66 -60l-27 44l81 50l-80 51l26 44l68 -61l-4 90l47 -1l-5 -89l66 61l25 -44l-77 -50l78 -51z" />
<glyph unicode="+" horiz-adv-x="498" d="M279 282v-186h-61v186h-165v63h165v176h61v-176h167v-63h-167z" />
<glyph unicode="," horiz-adv-x="254" d="M65 -72l44 -12q91 119 92 204h-97q0 -38 -12 -98q-12 -63 -27 -94z" />
<glyph unicode="-" horiz-adv-x="380" d="M50 267v93h280v-93h-280z" />
<glyph unicode="&#x2010;" horiz-adv-x="380" d="M50 267v93h280v-93h-280z" />
<glyph unicode="." horiz-adv-x="233" d="M128 -9q-29 0 -48 22t-19 51t19 51t48 22t47.5 -22t18.5 -51t-18.5 -51t-47.5 -22z" />
<glyph unicode="/" horiz-adv-x="385" d="M93 -170l-80 17l296 857l81 -17z" />
<glyph unicode="0" d="M482 257q0 -110 -58 -184q-63 -82 -173 -82q-109 0 -173 77q-61 73 -61 188q0 109 64.5 182.5t168.5 73.5t170 -77q62 -72 62 -178zM419 257q0 82 -47 139.5t-122 57.5q-77 0 -126 -63q-44 -57 -44 -135t44 -138q49 -66 125 -66q84 0 130 64q40 55 40 141z" />
<glyph unicode="1" d="M329 0h-76v447h-131v60h207v-507z" />
<glyph unicode="2" d="M85 0l-1 77l165 142q48 42 67 70q22 34 22 74q-1 36 -26 61t-61 25q-67 0 -122 -72l-46 49q79 93 166 93q70 0 117.5 -42t47.5 -113q0 -101 -88 -174l-135 -113h261v-77h-367z" />
<glyph unicode="3" d="M230 -179q-92 0 -159 77l38 53q64 -61 126 -61t97.5 36.5t35.5 105.5q0 51 -30 88q-37 45 -106 45q-19 0 -67 1v63q45 0 66 6q94 29 94 123q0 41 -25.5 66.5t-60.5 25.5q-67 0 -107 -69l-51 43q78 96 156 96q68 0 113 -39q50 -44 50 -121q0 -45 -20 -84q-21 -42 -59 -62 q59 -12 94 -64.5t35 -117.5q0 -92 -60.5 -151.5t-159.5 -59.5z" />
<glyph unicode="4" d="M305 367l-187 -291h187v291zM370 0v-168h-65v168h-278v76l285 433h58v-433h100v-76h-100z" />
<glyph unicode="5" horiz-adv-x="584" d="M238 -179q-54 0 -108 28t-78 67l35 46q61 -75 153 -75q68 0 107 52q35 47 35 114q0 63 -40 104q-36 37 -85 37q-56 0 -118 -49l-68 30v333h346v-61h-270v-223q50 50 138 50q63 0 117 -56q60 -63 60 -159q0 -90 -60 -160q-65 -78 -164 -78z" />
<glyph unicode="6" d="M259 372q-57 0 -101 -42q-47 -45 -47 -113t37 -118q42 -57 112 -57q58 0 101 53q41 50 41 108q0 77 -40.5 123t-102.5 46zM260 -22q-101 0 -163 64q-73 75 -73 225q0 166 72 272q81 118 224 118q78 0 152 -38l-29 -61q-64 33 -124 33q-88 0 -147 -73.5t-63 -181.5 q73 104 167 104q78 0 136 -64q62 -68 62 -169q0 -91 -63.5 -160t-150.5 -69z" />
<glyph unicode="7" d="M450 443l-271 -612l-78 22l263 591h-287v60h373v-61z" />
<glyph unicode="8" d="M249 325q-62 -34 -88 -59q-40 -41 -40 -97q0 -68 49 -106q38 -29 84 -29q58 0 95 36t37 98q0 65 -41 104q-29 27 -96 53zM244 608q-101 0 -101 -94q0 -75 99 -120q109 43 109 116q0 98 -107 98zM248 -28q-83 0 -141 48q-64 54 -64 146q0 57 33 108q38 56 105 86 q-55 35 -77 62q-29 37 -29 88q0 78 55 119q47 35 121 35q66 0 115 -38q53 -42 53 -109q0 -97 -108 -155q151 -63 151 -194q0 -84 -51 -136q-58 -60 -163 -60z" />
<glyph unicode="9" d="M233 446q-57 0 -96 -57q-36 -51 -36 -111t38 -109q40 -54 98 -54q65 0 111 49.5t46 116.5q0 64 -45 114.5t-116 50.5zM222 -196q-116 0 -189 71l29 61q71 -66 168 -66q83 0 133 107q41 88 43 197q-36 -64 -68 -90q-42 -36 -104 -35q-89 1 -149 71q-57 67 -57 155 q0 98 54 164q58 71 151 71q94 0 162 -64q83 -77 83 -220q0 -155 -51 -269q-68 -153 -205 -153z" />
<glyph unicode=":" horiz-adv-x="244" d="M133 360q-28 0 -47.5 22t-19.5 51t19.5 51t47.5 22q29 0 48 -22t19 -51t-19 -51t-48 -22zM133 -9q-28 0 -47.5 22t-19.5 51t19.5 51t47.5 22q29 0 48 -22t19 -51t-19 -51t-48 -22z" />
<glyph unicode=";" horiz-adv-x="254" d="M147 361q-29 0 -49 21t-20 50t20 50.5t49 21.5t47.5 -21.5t18.5 -50.5t-19 -50t-47 -21zM65 -72l44 -12q91 119 92 204h-97q0 -38 -12 -98q-12 -63 -27 -94z" />
<glyph unicode="&#x3c;" horiz-adv-x="366" d="M132 285l187 -240l-73 -3l-219 247l218 240l74 -3z" />
<glyph unicode="=" horiz-adv-x="441" d="M51 287v65h338v-65h-338zM51 135v65h338v-65h-338z" />
<glyph unicode="&#x3e;" horiz-adv-x="365" d="M99 42l-74 3l187 240l-188 241l75 3l217 -240z" />
<glyph unicode="?" horiz-adv-x="484" d="M343 371q-17 -12 -49 -38q-19 -16 -30 -44q-2 -4 -17 -51q-2 -6 2 -49h-69q-5 40 -5 64q0 47 20 81q17 29 58 63.5t52 47.5q28 32 28 64q0 44 -28 72t-72 28q-94 0 -128 -104l-67 35q57 141 192 141q76 0 128.5 -49t52.5 -124q0 -81 -68 -137zM219 -13q-24 0 -40 16.5 t-16 40.5t16 41t40 17q25 0 42 -16.5t17 -41.5t-17 -41t-42 -16z" />
<glyph unicode="@" horiz-adv-x="1010" d="M493 -232q-190 0 -317 141q-123 137 -123 329t134 326t326 134q191 0 304 -119t113 -311q0 -106 -73 -188q-32 -36 -86 -63q-57 -29 -102 -29q-39 0 -61 31q-20 28 -16 68q-75 -98 -168 -98q-153 0 -153 211q0 112 69 207q77 105 189 105q34 0 67 -12q38 -15 54 -39l3 41 h73l-64 -408q1 -13 12.5 -23t24.5 -11q17 -1 53 21q32 19 47 36q23 25 42.5 71.5t19.5 79.5q0 163 -93 262t-255 99q-163 0 -277 -114t-114 -277q0 -164 102 -280q107 -121 269 -121q140 0 233 40q108 47 175 155l67 -43q-75 -126 -204 -178q-105 -43 -271 -43zM638 398 q-13 25 -49 39q-31 13 -63 13q-45 0 -96 -43q-76 -65 -76 -192q0 -66 12 -95q23 -56 93 -56q44 0 90 48t54 93z" />
<glyph unicode="A" horiz-adv-x="568" d="M453 -10l-59 189h-225l-58 -189l-82 10l213 654h80l216 -650zM281 551l-91 -303h184z" />
<glyph unicode="B" horiz-adv-x="524" d="M266 0l-203 2v639l166 3q2 0 13 1h14q77 0 122 -37q48 -40 48 -116q0 -84 -42 -114q-22 -15 -66 -27q153 -33 153 -167q0 -90 -59 -139q-54 -46 -146 -45zM235 585q-14 0 -83 -3v-207l69 -1q54 -1 88 26q38 30 38 82q-1 103 -112 103zM244 312h-92v-245h94q139 0 139 118 q0 58 -41 92.5t-100 34.5z" />
<glyph unicode="C" horiz-adv-x="539" d="M311 -8q-136 0 -212 104q-68 92 -68 233q0 136 71 229q78 101 211 102q47 0 111 -21q50 -17 79 -34l-38 -79q-91 56 -147 56q-99 0 -154 -95q-43 -75 -43 -170q0 -94 46 -164q53 -81 143 -81q85 0 160 43l39 -65q-59 -33 -96 -44q-45 -14 -102 -14z" />
<glyph unicode="D" horiz-adv-x="565" d="M215 -2q-25 0 -76 2t-76 2v642q69 3 146 3q169 0 246 -77t78 -247q1 -156 -80.5 -240.5t-237.5 -84.5zM438 312q0 271 -203 271q-29 0 -83 -2v-507h90q95 0 148 74q48 66 48 164z" />
<glyph unicode="E" horiz-adv-x="489" d="M152 568v-193h252v-75l-252 1v-225l267 1v-77h-356v640h359v-72h-270z" />
<glyph unicode="F" horiz-adv-x="490" d="M152 568v-193h254v-75h-254v-300h-89v640h360v-72h-271z" />
<glyph unicode="G" horiz-adv-x="582" d="M519 61q-60 -36 -100 -50q-50 -17 -114 -17q-130 0 -205 103q-68 92 -69 226q-1 122 65 221q77 116 205 116q48 0 106 -16q64 -17 96 -44l-37 -75q-83 57 -156 57q-95 0 -147 -97q-41 -76 -41 -168t43 -162q51 -83 137 -83q71 0 129 31v198h-142v74h230v-314z" />
<glyph unicode="H" horiz-adv-x="582" d="M431 0v300h-279v-300h-89v640h89v-265h279v265h88v-640h-88z" />
<glyph unicode="I" horiz-adv-x="215" d="M63 0v642h89v-642h-89z" />
<glyph unicode="J" horiz-adv-x="215" d="M152 69q0 -228 -200 -228q-59 0 -100 50l46 67q33 -35 67 -35q98 0 98 138v577h89v-569z" />
<glyph unicode="K" horiz-adv-x="531" d="M420 -21l-221 297l-47 -70v-206h-89v640h89v-315q161 212 250 340l70 -50l-216 -280q41 -67 133 -175l137 -158z" />
<glyph unicode="L" horiz-adv-x="501" d="M63 0v641h89v-569h286v-72h-375z" />
<glyph unicode="M" horiz-adv-x="793" d="M630 0v511l-194 -512h-83l-197 516v-515h-82v642h127l198 -515l203 515h117v-642h-89z" />
<glyph unicode="N" horiz-adv-x="582" d="M456 -11q-90 162 -310 475v-463l-83 -1v644h74l300 -455v451h82v-629z" />
<glyph unicode="O" horiz-adv-x="644" d="M319 -16q-140 0 -217 102q-70 91 -70 236q0 136 78 227q82 97 216 97q133 0 213 -97q74 -91 74 -227q0 -144 -74 -237q-80 -101 -220 -101zM324 572q-98 0 -157 -83q-52 -74 -52 -176q0 -98 52 -171q58 -81 152 -81q95 0 156 80q56 74 56 171q0 101 -52 176 q-58 84 -155 84z" />
<glyph unicode="P" horiz-adv-x="459" d="M244 264q-38 0 -92 4v-268h-89v640l189 4q81 2 128 -50.5t47 -134.5q0 -80 -52 -137.5t-131 -57.5zM240 585l-88 -2v-253l78 1q50 1 80 39q29 35 29 86q0 131 -99 129z" />
<glyph unicode="Q" horiz-adv-x="658" d="M607 -70l-122 107q-75 -53 -167 -53q-139 0 -216 103q-71 93 -71 236q0 137 78 227q83 96 217 96q133 0 212 -95q74 -89 74 -225q0 -63 -15 -124q-19 -75 -54 -110l117 -103zM323 571q-98 0 -156 -82q-53 -73 -53 -174q0 -96 51 -170q58 -84 150 -84q55 0 107 32l-75 66 l54 58l77 -68q52 73 52 167q0 102 -51 174q-58 81 -156 81z" />
<glyph unicode="R" horiz-adv-x="530" d="M414 -10q-51 51 -118 147q-46 65 -100 154l-44 -2v-289h-89v641l202 3q175 -2 173 -177q-1 -69 -42 -113t-111 -58l108 -144q40 -52 132 -142zM239 583l-87 -2v-225h65q72 0 105.5 26.5t33.5 95.5q0 108 -117 105z" />
<glyph unicode="S" horiz-adv-x="492" d="M239 -10q-57 0 -109 20q-59 22 -89 63l46 64q61 -71 155 -71q56 0 89 30.5t33 86.5q0 67 -79 100l-147 61q-78 49 -77 151q1 76 60 125q55 46 133 46q92 0 169 -61l-42 -63q-53 48 -127 48q-102 0 -102 -101q0 -63 104 -98q109 -37 143 -66q51 -44 51 -140 q0 -93 -58.5 -144t-152.5 -51z" />
<glyph unicode="T" horiz-adv-x="536" d="M318 572v-572h-89v572h-198v67h473v-67h-186z" />
<glyph unicode="U" horiz-adv-x="571" d="M508 230q0 -111 -61 -179t-170 -68q-106 0 -162 72q-52 66 -52 175v410h89v-410q0 -172 127 -172q71 0 107 52q32 45 32 120v410h90v-410z" />
<glyph unicode="V" horiz-adv-x="548" d="M311 -10h-65l-205 640l85 23l159 -522l159 522l74 -23z" />
<glyph unicode="W" horiz-adv-x="789" d="M591 -6h-52l-142 465l-142 -465h-63l-176 632l87 19l132 -499l135 489h64l131 -488l136 498l68 -19z" />
<glyph unicode="X" horiz-adv-x="552" d="M421 -15l-155 278l-139 -278l-91 20l186 312l-174 309l91 19l134 -243l129 244l75 -20l-165 -292l204 -329z" />
<glyph unicode="Y" horiz-adv-x="503" d="M296 272v-272h-90v272l-177 355l80 23l145 -297l143 297l76 -23z" />
<glyph unicode="Z" horiz-adv-x="544" d="M161 76h317v-76h-408l-7 77l322 497l-305 -2v67h393l8 -72z" />
<glyph unicode="[" horiz-adv-x="269" d="M56 -114v854h153v-51h-71v-733h81v-70h-163z" />
<glyph unicode="\" horiz-adv-x="385" d="M308 -170l-296 857l80 17l297 -857z" />
<glyph unicode="]" horiz-adv-x="266" d="M50 -114v70h81v733h-72v51h151v-854h-160z" />
<glyph unicode="^" horiz-adv-x="536" d="M267 592l-115 -139l-42 52l157 173l159 -173l-42 -52z" />
<glyph unicode="_" horiz-adv-x="536" d="M5 -109v59h525v-59h-525z" />
<glyph unicode="`" horiz-adv-x="329" d="M266 556l-209 90l47 65l210 -96z" />
<glyph unicode="a" horiz-adv-x="491" d="M394 -11q-41 0 -63 48q-30 -23 -52 -33q-44 -20 -100 -20q-63 0 -100.5 40t-37.5 103q0 81 49 117q32 23 121 44q34 8 108 15v63q0 33 -25.5 54t-59.5 21q-55 0 -133 -64l-41 56q31 28 82 52q56 27 92 27q69 0 116 -43t47 -112v-282q5 -20 21 -20q11 -1 42 21l16 -52 q-33 -35 -82 -35zM319 233q-29 0 -76 -9q-27 -5 -57 -13q-72 -19 -73 -85q0 -36 20.5 -57.5t56.5 -21.5q39 0 80 21q49 25 49 64v101z" />
<glyph unicode="b" horiz-adv-x="515" d="M272 -10q-64 0 -129 50l-14 -40h-65v700h79v-252q68 64 125 64q102 0 160 -78q53 -70 53 -175q0 -115 -46 -186q-54 -83 -163 -83zM267 443q-91 0 -124 -72v-263q18 -24 55 -38q34 -14 66 -14q127 0 127 200q0 73 -25 123q-33 64 -99 64z" />
<glyph unicode="c" horiz-adv-x="479" d="M269 -12q-131 0 -191 101q-39 66 -39 153q0 115 58 187q63 79 174 78q88 -1 157 -53l-42 -66q-67 51 -126 51q-71 0 -108 -68q-30 -55 -30 -133q0 -73 36 -124q41 -57 111 -57q72 0 134 55l39 -52q-73 -72 -173 -72z" />
<glyph unicode="d" horiz-adv-x="511" d="M448 0h-66l-12 42q-81 -55 -139 -55q-93 0 -147 85q-47 73 -47 171q0 112 50 185q58 84 165 84q70 0 118 -58v243h78v-697zM370 380q-28 38 -51.5 50.5t-70.5 12.5q-67 0 -98 -65q-24 -49 -24 -124t28 -127q34 -66 103 -66q61 0 113 45v274z" />
<glyph unicode="e" horiz-adv-x="491" d="M124 257q0 -148 84 -186q33 -15 69 -15q59 0 131 64l40 -56q-80 -76 -178 -76q-136 0 -194 102q-37 65 -37 157q0 114 60 185q63 75 175 75q82 0 131 -53t49 -136v-61h-330zM375 332q0 109 -108 109q-60 0 -90.5 -29.5t-45.5 -91.5h244v12z" />
<glyph unicode="f" horiz-adv-x="324" d="M336 651q-47 30 -86 31q-42 1 -63 -43q-15 -34 -15 -81v-63h139v-65h-139v-430h-76v430h-78v65h78v66q0 79 36 129q40 56 117 56q45 0 69 -10q7 -3 56 -34z" />
<glyph unicode="g" horiz-adv-x="511" d="M508 398l-107 3q16 -34 16 -66q0 -75 -51 -125q-58 -56 -142 -56q-49 0 -66 12q-39 -24 -39 -54q0 -27 38 -35q18 -4 98 -4q103 0 140 -14q66 -25 66 -109q0 -86 -90 -136q-77 -43 -169 -43h-3q-63 0 -108 27q-54 33 -54 92q0 65 69 130q-22 8 -42.5 34.5t-20.5 49.5 q0 27 24 51l41 41q-62 53 -63 139q0 75 58 130q54 50 132 49q46 -1 88 -23q37 -20 55 -47l130 20v-66zM348 337q0 47 -35 83q-33 33 -82 33q-50 0 -80.5 -37t-30.5 -85t30.5 -82.5t77.5 -34.5q55 0 89 36q31 32 31 87zM384 -53q0 65 -114 65q-45 0 -99 -3q-25 -1 -45 -36 q-18 -31 -18 -58q0 -41 40 -64q33 -18 77 -18q57 0 104 28q55 33 55 86z" />
<glyph unicode="h" horiz-adv-x="512" d="M371 0v325q0 49 -22 81q-25 37 -72 37q-39 0 -85 -32q-50 -34 -50 -71v-340h-79v696h79v-257q77 72 143 72q70 0 117 -51.5t47 -121.5v-338h-78z" />
<glyph unicode="i" horiz-adv-x="233" d="M117 602q-23 0 -38.5 16t-15.5 39t15.5 38.5t38.5 15.5t38 -15.5t15 -38.5t-15 -39t-38 -16zM71 0v495h81v-495h-81z" />
<glyph unicode="j" horiz-adv-x="233" d="M130 604q-23 0 -38.5 15.5t-15.5 38.5t15.5 38.5t38.5 15.5t38.5 -15.5t15.5 -38.5t-15.5 -38.5t-38.5 -15.5zM58 -109q-30 -22 -71 -34l32 -75q144 55 144 153v560h-79v-516q0 -69 -26 -88z" />
<glyph unicode="k" horiz-adv-x="476" d="M395 -25l-219 251l-34 -34v-192h-79v697h79v-421l218 245l68 -46l-198 -203l235 -254z" />
<glyph unicode="l" horiz-adv-x="234" d="M156 0h-78v698h78v-698z" />
<glyph unicode="m" horiz-adv-x="776" d="M634 0v346q0 97 -88 97q-27 0 -69 -32q-51 -39 -51 -89v-322h-78v351q0 40 -21.5 65.5t-60.5 25.5t-81.5 -36t-42.5 -75v-331h-79v495h79v-70q76 82 140 82q41 0 74 -26t49 -65q84 96 158 96q62 0 106 -49t44 -112v-351h-79z" />
<glyph unicode="n" horiz-adv-x="512" d="M371 0v325q0 49 -22 81q-25 37 -72 37q-41 0 -85 -32q-50 -36 -50 -83v-328h-79v495h79v-56q39 37 65 51q37 21 79 21q69 0 116 -51.5t47 -121.5v-338h-78z" />
<glyph unicode="o" horiz-adv-x="546" d="M275 -11q-135 0 -195 101q-41 69 -41 162q0 129 81 201q66 59 156 59q89 0 153 -59q78 -72 78 -201q0 -90 -46 -163q-63 -100 -186 -100zM281 445q-79 0 -121 -62q-35 -54 -35 -137q0 -79 33 -130q39 -62 113 -62q77 0 116 63q34 53 34 134q0 77 -31 130q-37 64 -109 64z " />
<glyph unicode="p" horiz-adv-x="517" d="M258 -13q-63 0 -116 57v-241h-79v692h79v-47q66 64 117 64q221 0 221 -245q0 -120 -49 -194q-58 -86 -173 -86zM258 445q-37 0 -71.5 -23.5t-44.5 -57.5v-263q61 -47 121 -47q64 0 100 70q30 59 30 129q0 192 -135 192z" />
<glyph unicode="q" horiz-adv-x="511" d="M368 -197v251q-93 -67 -143 -67q-94 0 -145 93q-43 76 -43 177t44 169q57 87 172 86q29 0 63 -17t52 -40v40h80v-692h-80zM368 365q-11 36 -42.5 58.5t-69.5 22.5q-73 0 -107 -67q-26 -51 -26 -131q0 -68 32 -123q38 -64 102 -64q53 0 111 45v259z" />
<glyph unicode="r" horiz-adv-x="342" d="M298 410q-19 13 -54 12q-27 0 -64.5 -39t-37.5 -66v-317h-79v495h79v-82q59 93 124 93q17 0 56 -16z" />
<glyph unicode="s" horiz-adv-x="437" d="M214 -14q-103 0 -166 58l40 61q52 -50 134 -50q35 0 65 26t30 60q0 55 -79 76q-61 16 -120 38q-58 30 -58 102t46 115t119 42q68 -1 144 -46l-26 -63q-70 45 -121 45q-87 0 -87 -73q0 -40 40 -54l144 -47q80 -37 80 -117q0 -81 -51.5 -127t-133.5 -46z" />
<glyph unicode="t" horiz-adv-x="351" d="M214 -8q-56 0 -87 51q-27 43 -27 102v285h-79v66h79v101h79v-101h129v-67l-129 1v-297q0 -67 57 -67q31 0 78 45l39 -54q-56 -65 -139 -65z" />
<glyph unicode="u" horiz-adv-x="511" d="M446 0h-71l-11 52q-74 -70 -153 -70q-68 0 -110 56q-38 52 -38 122v335h79v-331q0 -111 88 -111q42 0 90 35t48 76v331h78v-495z" />
<glyph unicode="v" horiz-adv-x="464" d="M261 -12h-54l-185 491l79 22l136 -386l129 386l76 -22z" />
<glyph unicode="w" horiz-adv-x="735" d="M561 -9h-61l-130 370l-132 -370h-63l-148 488l77 20l111 -395l123 388h70l128 -387l105 394l73 -20z" />
<glyph unicode="x" horiz-adv-x="492" d="M411 -26l-164 216l-161 -214l-67 45l181 225l-162 218l74 44l141 -198l146 197l62 -35l-169 -221l186 -231z" />
<glyph unicode="y" horiz-adv-x="480" d="M249 -84q-17 -47 -62.5 -79.5t-95.5 -32.5q-15 0 -69 18l25 71q28 -13 50 -14q46 -1 84 67l41 96l-192 436l77 21l151 -354l129 353l71 -17z" />
<glyph unicode="z" horiz-adv-x="482" d="M53 0v66l228 303q17 23 51 61h-269v64h362v-70l-220 -299q-11 -15 -45 -55h279v-70h-386z" />
<glyph unicode="{" horiz-adv-x="536" d="M398 748q-41 13 -57 13q-45 0 -59 -21q-18 -27 -18 -115q0 -22 2.5 -65.5t2.5 -65.5q0 -72 -82 -146v-25q40 -29 66 -81.5t26 -102.5q0 -27 -4 -81t-4 -81q0 -59 5 -74q10 -29 46 -29q44 0 69 21l20 -75q-60 -19 -92 -17q-94 5 -122 87q-15 44 -15 161q0 20 2 60.5 t2 60.5q0 87 -74 147l1 40q38 39 50 58q23 36 23 80q0 23 -3 68t-3 68q0 201 159 201q26 0 74 -11z" />
<glyph unicode="|" horiz-adv-x="229" d="M85 -220v906h88v-906h-88z" />
<glyph unicode="}" horiz-adv-x="536" d="M357 172q0 -20 2 -60.5t2 -60.5q0 -117 -17 -164q-29 -80 -120 -84q-30 -1 -92 17l20 75q25 -21 69 -21q51 0 51 62v41q0 27 -4 81t-4 81q0 50 26 102.5t66 81.5v25q-82 74 -82 146q0 22 2.5 65.5t2.5 65.5q0 88 -18 115q-14 21 -59 21q-16 0 -57 -13l-15 75q48 11 74 11 q159 0 159 -201q0 -23 -3 -68t-3 -68q0 -44 23 -80q12 -19 50 -58l1 -40q-74 -60 -74 -147z" />
<glyph unicode="~" horiz-adv-x="395" d="M279 379q-22 0 -58.5 27.5t-53.5 27.5q-29 0 -65 -53l-19 72q37 44 87 44q35 0 82 -34q19 -14 35 -14t32 20q7 7 16 17l18 -70q-37 -37 -74 -37z" />
<glyph unicode="&#xa1;" horiz-adv-x="235" d="M68 501h84v-604h-84v604zM114 706q25 0 41.5 -16t16.5 -41t-16.5 -41.5t-41.5 -16.5q-24 0 -40.5 17t-16.5 41t16.5 40.5t40.5 16.5z" />
<glyph unicode="&#xa2;" horiz-adv-x="479" d="M225 -10q-107 16 -155 111q-32 63 -32 141q0 101 44 169q49 77 143 93v86h89v-85q63 -11 115 -51l-43 -68q-63 49 -126 49q-72 0 -108 -66q-29 -53 -29 -131q0 -73 36 -122q40 -55 110 -55q76 0 134 53l40 -54q-58 -57 -129 -69v-80h-89v79z" />
<glyph unicode="&#xa3;" horiz-adv-x="476" d="M426 -7q-52 14 -129 14q-132 0 -217 -21l-11 68q16 4 39 13q6 2 17 13q34 33 34 91q0 65 -14 130h-60v69h53q-15 90 -15 106q0 79 44 129.5t122 50.5q62 0 118 -32l-30 -61q-60 29 -82 29q-46 0 -75 -38q-26 -34 -26 -82q0 -17 17 -102h136v-69h-119q6 -61 6 -123 q0 -77 -30 -102q79 11 109 11q68 0 129 -17z" />
<glyph unicode="&#xa4;" horiz-adv-x="489" d="M404 360h-178v-45h178v-75h-178v-164l193 1v-77h-282v240h-99l-1 75h100v46h-99l-1 74h100v205h285v-72h-196v-133h178v-75z" />
<glyph unicode="&#xa5;" horiz-adv-x="531" d="M300 283v-18h86v-59h-86v-60h86v-59h-86v-85h-89v85h-89v59h89v60h-89v59h89v18l-178 358h90l132 -264l132 264h91z" />
<glyph unicode="&#xa6;" horiz-adv-x="182" d="M54 -18v274h77v-274h-77zM54 382v274h77v-274h-77z" />
<glyph unicode="&#xa7;" horiz-adv-x="392" d="M186 -87q-77 0 -130 52l32 49q43 -45 103 -45q24 0 45 17.5t21 40.5q0 38 -65 55q-10 3 -38 10q-12 3 -17 6q-65 22 -65 85q0 60 46 91q-46 24 -46 77q0 52 34.5 84t86.5 31q53 -1 108 -35l-22 -50q-54 34 -88 34q-32 0 -45 -13t-13 -45q0 -17 27 -29l64 -18 q97 -28 97 -102q0 -61 -41 -91q41 -24 41 -77q0 -59 -37.5 -93t-97.5 -34zM182 253q-49 -6 -49 -64q0 -22 54 -37q13 -4 31 -9q39 17 39 52q0 26 -21 39q-15 9 -54 19z" />
<glyph unicode="&#xa8;" horiz-adv-x="306" d="M255 546q-22 0 -36 15t-14 37t14 37t36 15q21 0 35.5 -15.5t14.5 -36.5q0 -22 -14 -37t-36 -15zM45 546q-22 0 -36 15t-14 37t14 37t36 15t36 -15t14 -37t-14 -37t-36 -15z" />
<glyph unicode="&#xa9;" horiz-adv-x="796" d="M396 102q-87 0 -136 66q-43 60 -43 150q0 88 46 147q50 64 135 65q59 0 121 -35l-24 -51q-59 36 -94 36q-64 0 -99 -61q-27 -47 -27 -109q0 -60 30 -105q34 -52 91 -52q53 0 102 28l25 -42q-70 -37 -127 -37zM132 316q0 -111 77.5 -188.5t188.5 -77.5t188.5 77.5 t77.5 188.5t-77.5 188.5t-188.5 77.5t-188.5 -77.5t-77.5 -188.5zM67 316q0 138 96.5 234.5t234.5 96.5t234.5 -96.5t96.5 -234.5t-96.5 -234.5t-234.5 -96.5t-234.5 96.5t-96.5 234.5z" />
<glyph unicode="&#xab;" horiz-adv-x="390" d="M240 286l131 -161l-71 -3l-153 167l153 162l71 -3zM99 286l130 -161l-70 -3l-154 167l154 162l70 -3z" />
<glyph unicode="&#xac;" horiz-adv-x="613" d="M474 28v222h-386v93h470v-315h-84z" />
<glyph unicode="&#xad;" horiz-adv-x="498" d="M52 285v63h394v-63h-394z" />
<glyph unicode="&#xae;" horiz-adv-x="796" d="M133 316h-1q0 -111 77.5 -188.5t188.5 -77.5t188.5 77.5t77.5 188.5t-77.5 188.5t-188.5 77.5t-188 -77.5t-77 -188.5zM67 316q0 138 96.5 234.5t234.5 96.5t234.5 -96.5t96.5 -234.5t-96.5 -234.5t-234.5 -96.5t-234.5 96.5t-96.5 234.5zM491 108q-56 56 -139 192 l-29 -1v-185h-57v410q105 2 129 2q112 -1 111 -113q-1 -91 -98 -109l69 -93q23 -30 85 -90zM379 487l-56 -1v-144h42q47 0 68 16.5t21 61.5q0 68 -75 67z" />
<glyph unicode="&#xaf;" horiz-adv-x="406" d="M105 594v65h234v-65h-234z" />
<glyph unicode="&#xb0;" horiz-adv-x="273" d="M138 712q56 0 93 -37t37 -93t-37 -93t-93 -37t-94.5 37t-38.5 93t38.5 93t94.5 37zM138 662q-35 0 -57.5 -22.5t-22.5 -57.5t22.5 -57.5t57.5 -22.5q34 0 55.5 23t21.5 57t-21.5 57t-55.5 23z" />
<glyph unicode="&#xb1;" horiz-adv-x="501" d="M279 280v-185h-62v184l-164 1v62h164v175h62v-175h167v-62h-167zM66 12v54h374v-54h-374z" />
<glyph unicode="&#xb4;" horiz-adv-x="329" d="M104 557l-47 59l210 96l47 -65z" />
<glyph unicode="&#xb5;" horiz-adv-x="508" d="M444 -61q-66 38 -80 122l-63 -61q-27 -22 -60 -22q-29 0 -57 13q-31 14 -43 38v-225h-73v682h73v-342q0 -97 116 -97q36 0 70.5 33t34.5 69v338h80v-371q0 -84 39 -109q20 -13 27 -20z" />
<glyph unicode="&#xb6;" horiz-adv-x="507" d="M437 0h-69v642h69v-642zM297 0h-69v337h-25q-154 0 -153 156q0 81 37 115t119 34h91v-642z" />
<glyph unicode="&#xb7;" horiz-adv-x="236" d="M128 334q-30 0 -48.5 24.5t-18.5 54.5t18.5 54.5t48.5 24.5q29 0 49 -25q17 -24 17 -54t-17 -54q-20 -25 -49 -25z" />
<glyph unicode="&#xb8;" horiz-adv-x="205" d="M101 -219q-65 0 -86 48l36 34q30 -32 51 -32q36 0 36 34q0 39 -34 39q-14 0 -35 -15l-46 21l5 94l58 1l-4 -52q9 4 25 4q39 0 64.5 -25t25.5 -64q0 -40 -27.5 -63.5t-68.5 -23.5z" />
<glyph unicode="&#xbb;" horiz-adv-x="393" d="M215 122l-71 3l131 161l-131 162l71 3l153 -162zM74 122l-72 3l131 161l-131 162l72 3l152 -162z" />
<glyph unicode="&#xbf;" horiz-adv-x="459" d="M109 222q95 68 78 257h80q7 -37 7 -77q0 -151 -80 -220q-45 -39 -54 -49q-28 -31 -28 -64q0 -44 28 -72t72 -28q94 0 128 103l68 -34q-59 -141 -192 -141q-76 0 -129 48.5t-53 124.5q0 99 75 152zM226 681q24 0 40 -16.5t16 -40.5t-16 -41t-40 -17t-41.5 17t-17.5 41 q0 25 17 41t42 16z" />
<glyph unicode="&#xc0;" horiz-adv-x="580" d="M458 -10l-59 189h-225l-57 -189l-82 10l212 654h81l215 -650zM287 551l-92 -303h184zM365 686l-209 90l47 65l210 -96z" />
<glyph unicode="&#xc1;" horiz-adv-x="568" d="M458 -10l-59 189h-225l-57 -189l-82 10l212 654h81l215 -650zM287 551l-92 -303h184zM203 687l-47 59l210 96l47 -65z" />
<glyph unicode="&#xc2;" horiz-adv-x="568" d="M458 -10l-59 189h-225l-57 -189l-82 10l212 654h81l215 -650zM287 551l-92 -303h184zM283 749l-137 -93v71l137 113l142 -113v-71z" />
<glyph unicode="&#xc3;" horiz-adv-x="580" d="M458 -10l-59 189h-225l-57 -189l-82 10l212 654h81l215 -650zM287 551l-92 -303h184zM364 669q-25 0 -73.5 34.5t-61.5 34.5q-39 0 -70 -42l-27 59q14 21 42.5 35t54.5 15q25 1 70.5 -33.5t62.5 -34.5q25 0 50 25l26 -60q-9 -11 -34.5 -22t-39.5 -11z" />
<glyph unicode="&#xc4;" horiz-adv-x="580" d="M458 -10l-59 189h-225l-57 -189l-82 10l212 654h81l215 -650zM287 551l-92 -303h184zM396 694q-50 0 -50 52q0 22 14 36.5t36 14.5q21 0 35.5 -15t14.5 -36q0 -22 -14 -37t-36 -15zM186 694q-50 0 -50 52q0 22 14 36.5t36 14.5q21 0 35.5 -15t14.5 -36q0 -22 -14 -37 t-36 -15z" />
<glyph unicode="&#xc5;" horiz-adv-x="580" d="M458 -10l-59 189h-225l-57 -189l-82 10l212 654h81l215 -650zM287 551l-92 -303h184zM293 686q-39 0 -65 24t-26 63q0 38 26 62t65 24t65 -24t26 -62q0 -39 -26 -63t-65 -24zM293 816q-43 0 -43 -43q0 -44 43 -44t43 44q0 43 -43 43z" />
<glyph unicode="&#xc6;" horiz-adv-x="862" d="M281 551l-91 -303h184zM552 568v-193h252v-75l-252 1v-225l267 1v-77h-370l-55 179h-225l-58 -189l-82 10l213 654h80l141 -427v413h359v-72h-270z" />
<glyph unicode="&#xc7;" horiz-adv-x="570" d="M348 -219q-64 0 -87 48l37 34q28 -32 51 -32q35 0 35 34q0 39 -33 39q-14 0 -35 -15l-46 21l5 85q-117 15 -182 118q-56 90 -56 216q0 137 70 229q78 101 211 102q49 0 112 -21q46 -16 78 -34l-38 -79q-91 56 -147 56q-99 0 -154 -95q-43 -75 -43 -170q0 -94 46 -164 q53 -81 143 -81q85 0 161 43l38 -65q-58 -31 -90 -42q-41 -14 -92 -16l-3 -39q9 4 25 4q39 0 64.5 -25t25.5 -64q0 -40 -27.5 -63.5t-68.5 -23.5z" />
<glyph unicode="&#xc8;" horiz-adv-x="489" d="M157 568v-193h252v-75l-252 1v-225l267 1v-77h-356v640h359v-72h-270zM334 686l-208 90l46 65l211 -96z" />
<glyph unicode="&#xc9;" horiz-adv-x="469" d="M157 568v-193h252v-75l-252 1v-225l267 1v-77h-356v640h359v-72h-270zM172 687l-46 59l210 96l47 -65z" />
<glyph unicode="&#xca;" horiz-adv-x="489" d="M157 568v-193h252v-75l-252 1v-225l267 1v-77h-356v640h359v-72h-270zM252 749l-138 -93v71l138 113l142 -113v-71z" />
<glyph unicode="&#xcb;" horiz-adv-x="489" d="M157 568v-193h252v-75l-252 1v-225l267 1v-77h-356v640h359v-72h-270zM365 696q-22 0 -36 15t-14 37t14 37t36 15q21 0 35.5 -15.5t14.5 -36.5q0 -22 -14 -37t-36 -15zM156 696q-22 0 -36 15t-14 37t14 37t36 15t35.5 -15t13.5 -37t-13.5 -37t-35.5 -15z" />
<glyph unicode="&#xcc;" horiz-adv-x="215" d="M68 0v642h89v-642h-89zM198 686l-209 90l47 65l210 -96z" />
<glyph unicode="&#xcd;" horiz-adv-x="215" d="M68 0v642h89v-642h-89zM36 687l-47 59l210 96l47 -65z" />
<glyph unicode="&#xce;" horiz-adv-x="215" d="M68 0v642h89v-642h-89zM115 749l-137 -93v71l137 113l142 -113v-71z" />
<glyph unicode="&#xcf;" horiz-adv-x="215" d="M68 0v642h89v-642h-89zM218 696q-22 0 -36 15t-14 37t14 37t36 15q21 0 35.5 -15.5t14.5 -36.5q0 -22 -14 -37t-36 -15zM9 696q-22 0 -36 15t-14 37t14 37t36 15t35.5 -15t13.5 -37t-13.5 -37t-35.5 -15z" />
<glyph unicode="&#xd0;" horiz-adv-x="565" d="M152 335h68v-68h-68v-193h90q95 0 148 74q48 66 48 164q0 271 -203 271q-29 0 -83 -2v-246zM6 335h57v309q69 3 146 3q169 0 246 -77t78 -247q1 -156 -80.5 -240.5t-237.5 -84.5q-25 0 -76 2t-76 2v265h-57v68z" />
<glyph unicode="&#xd1;" horiz-adv-x="570" d="M461 -11q-90 162 -310 475v-463l-83 -1v644h74l300 -455v451h82v-629zM385 659q-25 0 -73.5 34.5t-61.5 34.5q-39 0 -70 -42l-27 59q14 21 42.5 35t54.5 15q25 1 70.5 -33.5t62.5 -34.5q25 0 50 25l26 -60q-9 -11 -34.5 -22t-39.5 -11z" />
<glyph unicode="&#xd2;" horiz-adv-x="644" d="M324 -16q-140 0 -217 102q-70 91 -70 236q0 136 78 227q82 97 216 97q133 0 213 -97q74 -91 74 -227q0 -145 -73 -238q-80 -100 -221 -100zM329 572q-98 0 -157 -83q-52 -74 -52 -176q0 -98 52 -171q58 -81 152 -81q95 0 156 80q56 74 56 171q0 101 -52 176 q-58 84 -155 84zM408 686l-209 90l47 65l210 -96z" />
<glyph unicode="&#xd3;" horiz-adv-x="644" d="M324 -16q-140 0 -217 102q-70 91 -70 236q0 136 78 227q82 97 216 97q133 0 213 -97q74 -91 74 -227q0 -145 -73 -238q-80 -100 -221 -100zM329 572q-98 0 -157 -83q-52 -74 -52 -176q0 -98 52 -171q58 -81 152 -81q95 0 156 80q56 74 56 171q0 101 -52 176 q-58 84 -155 84zM246 687l-47 59l210 96l47 -65z" />
<glyph unicode="&#xd4;" horiz-adv-x="644" d="M324 -16q-140 0 -217 102q-70 91 -70 236q0 136 78 227q82 97 216 97q133 0 213 -97q74 -91 74 -227q0 -145 -73 -238q-80 -100 -221 -100zM329 572q-98 0 -157 -83q-52 -74 -52 -176q0 -98 52 -171q58 -81 152 -81q95 0 156 80q56 74 56 171q0 101 -52 176 q-58 84 -155 84zM333 759l-138 -93v71l138 113l142 -113v-71z" />
<glyph unicode="&#xd5;" horiz-adv-x="648" d="M324 -16q-140 0 -217 102q-70 91 -70 236q0 136 78 227q82 97 216 97q133 0 213 -97q74 -91 74 -227q0 -145 -73 -238q-80 -100 -221 -100zM329 572q-98 0 -157 -83q-52 -74 -52 -176q0 -98 52 -171q58 -81 152 -81q95 0 156 80q56 74 56 171q0 101 -52 176 q-58 84 -155 84zM385 669q-25 0 -73.5 34.5t-61.5 34.5q-39 0 -70 -42l-27 59q14 21 42.5 35t54.5 15q25 1 70.5 -33.5t62.5 -34.5q25 0 50 25l26 -60q-9 -11 -34.5 -22t-39.5 -11z" />
<glyph unicode="&#xd6;" horiz-adv-x="648" d="M324 -16q-140 0 -217 102q-70 91 -70 236q0 136 78 227q82 97 216 97q133 0 213 -97q74 -91 74 -227q0 -145 -73 -238q-80 -100 -221 -100zM329 572q-98 0 -157 -83q-52 -74 -52 -176q0 -98 52 -171q58 -81 152 -81q95 0 156 80q56 74 56 171q0 101 -52 176 q-58 84 -155 84zM439 696q-22 0 -36 15t-14 37t14 37t36 15q21 0 35.5 -15.5t14.5 -36.5q0 -22 -14 -37t-36 -15zM229 696q-22 0 -36 15t-14 37t14 37t36 15q21 0 35.5 -15.5t14.5 -36.5q0 -22 -14 -37t-36 -15z" />
<glyph unicode="&#xd8;" horiz-adv-x="644" d="M217 93l145 475q-16 4 -38 4q-98 0 -157 -83q-52 -74 -52 -176q0 -66 25 -123q27 -62 77 -97zM437 533l-144 -470q18 -2 26 -2q95 0 156 80q56 74 56 171q0 146 -94 221zM397 682l78 -24l-14 -46q76 -42 116 -123q36 -75 36 -167q0 -144 -74 -237q-80 -101 -220 -101 q-28 0 -49 4l-17 -57l-78 24l17 57q-160 79 -160 310q0 136 78 227q82 97 216 97q31 0 58 -6z" />
<glyph unicode="&#xd9;" horiz-adv-x="571" d="M513 230q0 -111 -61 -179t-170 -68q-106 0 -162 72q-52 66 -52 175v410h89v-410q0 -172 128 -172q71 0 107 52q31 46 31 120v410h90v-410zM366 686l-209 90l47 65l210 -96z" />
<glyph unicode="&#xda;" horiz-adv-x="571" d="M513 230q0 -111 -61 -179t-170 -68q-106 0 -162 72q-52 66 -52 175v410h89v-410q0 -172 128 -172q71 0 107 52q31 46 31 120v410h90v-410zM204 687l-47 59l210 96l47 -65z" />
<glyph unicode="&#xdb;" horiz-adv-x="571" d="M513 230q0 -111 -61 -179t-170 -68q-106 0 -162 72q-52 66 -52 175v410h89v-410q0 -172 128 -172q71 0 107 52q31 46 31 120v410h90v-410zM283 759l-138 -93v71l138 113l142 -113v-71z" />
<glyph unicode="&#xdc;" horiz-adv-x="521" d="M513 230q0 -111 -61 -179t-170 -68q-106 0 -162 72q-52 66 -52 175v410h89v-410q0 -172 128 -172q71 0 107 52q31 46 31 120v410h90v-410zM386 696q-22 0 -36 15t-14 37t14 37t36 15q21 0 35.5 -15.5t14.5 -36.5q0 -22 -14 -37t-36 -15zM177 696q-22 0 -36 15t-14 37 t14 37t36 15t35.5 -15t13.5 -37t-13.5 -37t-35.5 -15z" />
<glyph unicode="&#xdd;" horiz-adv-x="503" d="M301 272v-272h-89v272l-178 355l80 23l145 -297l143 297l76 -23zM193 627l-46 59l210 96l47 -65z" />
<glyph unicode="&#xde;" horiz-adv-x="543" d="M279 145q-70 0 -135 44v-297h-84v808h84v-97q48 73 133 73q103 0 163 -83q53 -74 54 -181q1 -118 -47 -187q-56 -80 -168 -80zM258 599q-79 0 -114 -74v-252q38 -60 130 -60q72 0 106 61q28 49 28 126q0 81 -33 135q-40 64 -117 64z" />
<glyph unicode="&#xdf;" horiz-adv-x="549" d="M334 -15q-62 0 -101 14q-46 17 -83 59l42 65q28 -39 59 -52q27 -12 78 -12q36 0 64 22t28 57q0 52 -78 78l-81 25q-98 33 -98 119q0 74 40.5 114t114.5 40q20 0 39 -3q13 20 13 27q0 61 -42 88q-36 23 -80 23q-56 0 -87 -32t-31 -88v-529h-78v529q0 186 201 186 q86 0 140 -45q56 -48 56 -133q0 -49 -36 -109q-46 16 -96 19q-32 2 -55 -19t-23 -53q0 -24 28 -41q18 -11 69 -27l79 -26q48 -20 67.5 -52t19.5 -85q0 -66 -51 -112.5t-118 -46.5z" />
<glyph unicode="&#xe0;" horiz-adv-x="491" d="M399 -11q-41 0 -63 48q-33 -25 -51 -33q-43 -20 -101 -20q-63 0 -100.5 40t-37.5 103q0 81 49 117q32 23 121 44q34 8 108 15v63q0 33 -25.5 54t-59.5 21q-55 0 -133 -64l-41 56q31 28 82 52q56 27 92 27q69 0 116 -43t47 -112v-282q5 -20 21 -20q11 -1 42 21l16 -52 q-33 -35 -82 -35zM324 233q-31 0 -76 -9q-14 -3 -57 -13q-71 -18 -72 -85q0 -36 20 -57.5t56 -21.5q39 0 80 21q49 25 49 64v101zM345 556l-209 90l47 65l210 -96z" />
<glyph unicode="&#xe1;" horiz-adv-x="491" d="M399 -11q-41 0 -63 48q-33 -25 -51 -33q-43 -20 -101 -20q-63 0 -100.5 40t-37.5 103q0 81 49 117q32 23 121 44q34 8 108 15v63q0 33 -25.5 54t-59.5 21q-55 0 -133 -64l-41 56q31 28 82 52q56 27 92 27q69 0 116 -43t47 -112v-282q5 -20 21 -20q11 -1 42 21l16 -52 q-33 -35 -82 -35zM324 233q-31 0 -76 -9q-14 -3 -57 -13q-71 -18 -72 -85q0 -36 20 -57.5t56 -21.5q39 0 80 21q49 25 49 64v101zM183 557l-47 59l210 96l47 -65z" />
<glyph unicode="&#xe2;" horiz-adv-x="491" d="M399 -11q-41 0 -63 48q-33 -25 -51 -33q-43 -20 -101 -20q-63 0 -100.5 40t-37.5 103q0 81 49 117q32 23 121 44q34 8 108 15v63q0 33 -25.5 54t-59.5 21q-55 0 -133 -64l-41 56q31 28 82 52q56 27 92 27q69 0 116 -43t47 -112v-282q5 -20 21 -20q11 -1 42 21l16 -52 q-33 -35 -82 -35zM324 233q-31 0 -76 -9q-14 -3 -57 -13q-71 -18 -72 -85q0 -36 20 -57.5t56 -21.5q39 0 80 21q49 25 49 64v101zM252 619l-138 -93v71l138 113l142 -113v-71z" />
<glyph unicode="&#xe3;" horiz-adv-x="491" d="M399 -11q-41 0 -63 48q-33 -25 -51 -33q-43 -20 -101 -20q-63 0 -100.5 40t-37.5 103q0 81 49 117q32 23 121 44q34 8 108 15v63q0 33 -25.5 54t-59.5 21q-55 0 -133 -64l-41 56q31 28 82 52q56 27 92 27q69 0 116 -43t47 -112v-282q5 -20 21 -20q11 -1 42 21l16 -52 q-33 -35 -82 -35zM324 233q-31 0 -76 -9q-14 -3 -57 -13q-71 -18 -72 -85q0 -36 20 -57.5t56 -21.5q39 0 80 21q49 25 49 64v101zM312 549q-26 0 -75 34.5t-61 34.5q-39 0 -70 -42l-26 59q14 20 42.5 34.5t53.5 15.5t71 -33.5t63 -34.5q23 0 50 25l26 -60 q-9 -10 -34.5 -21.5t-39.5 -11.5z" />
<glyph unicode="&#xe4;" horiz-adv-x="491" d="M399 -11q-41 0 -63 48q-33 -25 -51 -33q-43 -20 -101 -20q-63 0 -100.5 40t-37.5 103q0 81 49 117q32 23 121 44q34 8 108 15v63q0 33 -25.5 54t-59.5 21q-55 0 -133 -64l-41 56q31 28 82 52q56 27 92 27q69 0 116 -43t47 -112v-282q5 -20 21 -20q11 -1 42 21l16 -52 q-33 -35 -82 -35zM324 233q-31 0 -76 -9q-14 -3 -57 -13q-71 -18 -72 -85q0 -36 20 -57.5t56 -21.5q39 0 80 21q49 25 49 64v101zM355 546q-22 0 -36 15t-14 37t14 37t36 15q21 0 35.5 -15.5t14.5 -36.5q0 -22 -14 -37t-36 -15zM145 546q-22 0 -36 15t-14 37t14 37t36 15 q21 0 35.5 -15.5t14.5 -36.5q0 -22 -14 -37t-36 -15z" />
<glyph unicode="&#xe5;" horiz-adv-x="491" d="M399 -11q-41 0 -63 48q-33 -25 -51 -33q-43 -20 -101 -20q-63 0 -100.5 40t-37.5 103q0 81 49 117q32 23 121 44q34 8 108 15v63q0 33 -25.5 54t-59.5 21q-55 0 -133 -64l-41 56q31 28 82 52q56 27 92 27q69 0 116 -43t47 -112v-282q5 -20 21 -20q11 -1 42 21l16 -52 q-33 -35 -82 -35zM324 233q-31 0 -76 -9q-14 -3 -57 -13q-71 -18 -72 -85q0 -36 20 -57.5t56 -21.5q39 0 80 21q49 25 49 64v101zM240 566q-39 0 -64.5 24t-25.5 63q0 38 25.5 62t64.5 24t65 -23.5t26 -62.5t-25.5 -63t-65.5 -24zM240 696q-42 0 -42 -43q0 -44 42 -44 q43 0 43 44q0 43 -43 43z" />
<glyph unicode="&#xe6;" horiz-adv-x="775" d="M658 332q0 109 -108 109q-73 0 -104 -36q-23 -27 -42 -105h254v32zM331 37q-17 -12 -52 -33q-44 -20 -100 -20q-63 0 -100.5 40t-37.5 103q0 81 49 117q31 23 121 44q56 13 108 18v60q0 33 -25.5 54t-59.5 21q-55 0 -133 -64l-41 56q29 26 82 52q58 27 92 27 q103 0 146 -83q65 78 178 78q80 0 132 -66q47 -60 47 -143v-61h-340q0 -65 25 -112q17 -33 60 -52q38 -17 79 -17q29 0 70 22q35 18 61 42l40 -56q-82 -76 -179 -76q-125 0 -183 85zM319 233q-23 0 -84 -12q-64 -13 -81 -22q-41 -22 -41 -73q0 -79 77 -79q39 0 80 21 q49 25 49 64v101z" />
<glyph unicode="&#xe7;" horiz-adv-x="483" d="M295 -219q-63 0 -86 48l37 34q28 -32 50 -32q36 0 36 34q0 39 -34 39q-14 0 -34 -15l-47 21l5 83q-101 18 -147 111q-31 63 -31 138q0 114 58 187q63 79 174 78q88 -1 157 -53l-42 -66q-66 51 -125 51q-72 0 -109 -68q-29 -54 -30 -133q-1 -73 36 -124q41 -57 111 -57 q72 0 134 55l39 -52q-72 -70 -168 -72l-3 -35q9 4 25 4q38 0 64.5 -25.5t26.5 -63.5q0 -40 -28 -63.5t-69 -23.5z" />
<glyph unicode="&#xe8;" horiz-adv-x="497" d="M129 257q0 -147 85 -186q33 -15 69 -15q59 0 131 64l39 -56q-80 -76 -178 -76q-136 0 -194 102q-37 65 -37 157q0 114 60 185q63 75 175 75q82 0 131 -53t49 -136v-61h-330zM380 332q0 109 -108 109q-60 0 -92 -31q-28 -28 -44 -90h244v12zM355 556l-208 90l46 65 l211 -96z" />
<glyph unicode="&#xe9;" horiz-adv-x="497" d="M129 257q0 -147 85 -186q33 -15 69 -15q59 0 131 64l39 -56q-80 -76 -178 -76q-136 0 -194 102q-37 65 -37 157q0 114 60 185q63 75 175 75q82 0 131 -53t49 -136v-61h-330zM380 332q0 109 -108 109q-60 0 -92 -31q-28 -28 -44 -90h244v12zM183 557l-47 59l210 96l47 -65 z" />
<glyph unicode="&#xea;" horiz-adv-x="497" d="M129 257q0 -147 85 -186q33 -15 69 -15q59 0 131 64l39 -56q-80 -76 -178 -76q-136 0 -194 102q-37 65 -37 157q0 114 60 185q63 75 175 75q82 0 131 -53t49 -136v-61h-330zM380 332q0 109 -108 109q-60 0 -92 -31q-28 -28 -44 -90h244v12zM273 619l-138 -93v71l138 113 l142 -113v-71z" />
<glyph unicode="&#xeb;" horiz-adv-x="497" d="M129 257q0 -147 85 -186q33 -15 69 -15q59 0 131 64l39 -56q-80 -76 -178 -76q-136 0 -194 102q-37 65 -37 157q0 114 60 185q63 75 175 75q82 0 131 -53t49 -136v-61h-330zM380 332q0 109 -108 109q-60 0 -92 -31q-28 -28 -44 -90h244v12zM365 546q-22 0 -36 15t-14 37 t14 37t36 15q21 0 35.5 -15.5t14.5 -36.5q0 -22 -14 -37t-36 -15zM156 546q-22 0 -36 15t-14 37t14 37t36 15t35.5 -15t13.5 -37t-13.5 -37t-35.5 -15z" />
<glyph unicode="&#xec;" horiz-adv-x="249" d="M77 0v495h80v-495h-80zM208 556l-208 90l46 65l211 -96z" />
<glyph unicode="&#xed;" horiz-adv-x="234" d="M77 0v495h80v-495h-80zM46 557l-46 59l210 96l47 -65z" />
<glyph unicode="&#xee;" horiz-adv-x="210" d="M77 0v495h80v-495h-80zM115 619l-137 -93v71l137 113l142 -113v-71z" />
<glyph unicode="&#xef;" horiz-adv-x="207" d="M77 0v495h80v-495h-80zM215 546q-22 0 -36 15t-14 37t14 37t36 15q21 0 35.5 -15.5t14.5 -36.5q0 -22 -14 -37t-36 -15zM5 546q-22 0 -35.5 15t-13.5 37t13.5 37t35.5 15t36 -15t14 -37t-14 -37t-36 -15z" />
<glyph unicode="&#xf0;" horiz-adv-x="563" d="M428 358q-58 82 -151 82q-78 0 -119 -55q-37 -49 -38 -129q-1 -75 35 -130q40 -64 112 -64q83 0 128 60q41 55 41 140q0 52 -8 96zM212 613h94q-45 54 -68 73l67 45q52 -50 99 -118h136l-1 -69h-94q75 -137 74 -238q-2 -144 -58 -226q-67 -97 -204 -97q-102 0 -166 81 q-59 74 -59 179q0 122 63.5 193.5t182.5 71.5q77 0 120 -44q-10 29 -43 80h-143v69z" />
<glyph unicode="&#xf1;" horiz-adv-x="486" d="M376 0v325q0 49 -22 81q-25 37 -72 37q-41 0 -85 -32q-50 -36 -50 -83v-328h-79v495h79v-56q39 37 65 51q37 21 79 21q70 0 117 -51.5t47 -121.5v-338h-79zM333 549q-26 0 -75 34.5t-61 34.5q-39 0 -70 -42l-26 59q14 20 42.5 34.5t53.5 15.5t71 -33.5t63 -34.5 q23 0 50 25l26 -60q-9 -10 -34.5 -21.5t-39.5 -11.5z" />
<glyph unicode="&#xf2;" horiz-adv-x="543" d="M280 -11q-134 0 -195 101q-41 68 -41 162q0 129 81 201q67 59 157 59q89 0 153 -59q78 -71 78 -201q0 -90 -46 -163q-63 -100 -187 -100zM286 445q-79 0 -121 -62q-35 -54 -35 -137q0 -79 33 -130q39 -62 113 -62q77 0 116 63q34 53 34 134q0 77 -31 130q-37 64 -109 64z M387 556l-209 90l47 65l210 -96z" />
<glyph unicode="&#xf3;" horiz-adv-x="543" d="M280 -11q-134 0 -195 101q-41 68 -41 162q0 129 81 201q67 59 157 59q89 0 153 -59q78 -71 78 -201q0 -90 -46 -163q-63 -100 -187 -100zM286 445q-79 0 -121 -62q-35 -54 -35 -137q0 -79 33 -130q39 -62 113 -62q77 0 116 63q34 53 34 134q0 77 -31 130q-37 64 -109 64z M225 557l-47 59l210 96l47 -65z" />
<glyph unicode="&#xf4;" horiz-adv-x="543" d="M280 -11q-134 0 -195 101q-41 68 -41 162q0 129 81 201q67 59 157 59q89 0 153 -59q78 -71 78 -201q0 -90 -46 -163q-63 -100 -187 -100zM286 445q-79 0 -121 -62q-35 -54 -35 -137q0 -79 33 -130q39 -62 113 -62q77 0 116 63q34 53 34 134q0 77 -31 130q-37 64 -109 64z M283 619l-137 -93v71l137 113l142 -113v-71z" />
<glyph unicode="&#xf5;" horiz-adv-x="543" d="M280 -11q-134 0 -195 101q-41 68 -41 162q0 129 81 201q67 59 157 59q89 0 153 -59q78 -71 78 -201q0 -90 -46 -163q-63 -100 -187 -100zM286 445q-79 0 -121 -62q-35 -54 -35 -137q0 -79 33 -130q39 -62 113 -62q77 0 116 63q34 53 34 134q0 77 -31 130q-37 64 -109 64z M364 549q-25 0 -73.5 34.5t-61.5 34.5q-39 0 -70 -42l-27 59q14 21 42.5 35t54.5 15q25 1 70.5 -33.5t62.5 -34.5q25 0 50 25l26 -60q-9 -11 -34.5 -22t-39.5 -11z" />
<glyph unicode="&#xf6;" horiz-adv-x="543" d="M280 -11q-134 0 -195 101q-41 68 -41 162q0 129 81 201q67 59 157 59q89 0 153 -59q78 -71 78 -201q0 -90 -46 -163q-63 -100 -187 -100zM286 445q-79 0 -121 -62q-35 -54 -35 -137q0 -79 33 -130q39 -62 113 -62q77 0 116 63q34 53 34 134q0 77 -31 130q-37 64 -109 64z M386 546q-22 0 -36 15t-14 37t14 37t36 15q21 0 35.5 -15.5t14.5 -36.5q0 -22 -14 -37t-36 -15zM177 546q-22 0 -36 15t-14 37t14 37t36 15t35.5 -15t13.5 -37t-13.5 -37t-35.5 -15z" />
<glyph unicode="&#xf7;" horiz-adv-x="496" d="M264 397q-26 0 -43 19.5t-17 46.5t17 46.5t43 19.5t43 -19.5t17 -46.5t-17 -46.5t-43 -19.5zM53 275v70h393v-70h-393zM264 93q-26 0 -43 19.5t-17 46.5t17 46.5t43 19.5t43 -19.5t17 -46.5t-17 -46.5t-43 -19.5z" />
<glyph unicode="&#xf8;" horiz-adv-x="546" d="M177 92l107 353h-3q-79 0 -121 -62q-35 -54 -35 -137q0 -101 52 -154zM361 416l-110 -361q6 -1 20 -1q77 0 116 63q34 53 34 134q0 115 -60 165zM325 578l78 -24l-21 -68q125 -66 125 -234q0 -90 -46 -163q-63 -100 -186 -100q-23 0 -43 3l-19 -61l-78 24l19 62 q-58 32 -88 101q-27 60 -27 134q0 129 81 201q66 59 156 59q10 0 28 -2z" />
<glyph unicode="&#xf9;" horiz-adv-x="482" d="M451 0h-71q-3 14 -10 52q-75 -70 -154 -70q-68 0 -110 56q-38 52 -38 122v335h79v-331q0 -111 88 -111q42 0 90 35t48 76v331h78v-495zM355 556l-208 90l46 65l211 -96z" />
<glyph unicode="&#xfa;" horiz-adv-x="482" d="M451 0h-71q-3 14 -10 52q-75 -70 -154 -70q-68 0 -110 56q-38 52 -38 122v335h79v-331q0 -111 88 -111q42 0 90 35t48 76v331h78v-495zM183 557l-47 59l210 96l47 -65z" />
<glyph unicode="&#xfb;" horiz-adv-x="482" d="M451 0h-71q-3 14 -10 52q-75 -70 -154 -70q-68 0 -110 56q-38 52 -38 122v335h79v-331q0 -111 88 -111q42 0 90 35t48 76v331h78v-495zM262 619l-137 -93v71l137 113l142 -113v-71z" />
<glyph unicode="&#xfc;" horiz-adv-x="482" d="M451 0h-71q-3 14 -10 52q-75 -70 -154 -70q-68 0 -110 56q-38 52 -38 122v335h79v-331q0 -111 88 -111q42 0 90 35t48 76v331h78v-495zM365 546q-22 0 -36 15t-14 37t14 37t36 15q21 0 35.5 -15.5t14.5 -36.5q0 -22 -14 -37t-36 -15zM156 546q-22 0 -36 15t-14 37t14 37 t36 15t35.5 -15t13.5 -37t-13.5 -37t-35.5 -15z" />
<glyph unicode="&#xfe;" horiz-adv-x="522" d="M272 -10q-40 0 -66 13l-60 38v-236h-86v880h83v-266q54 81 148 81q98 0 152 -71q49 -64 50 -165q1 -122 -48 -193q-57 -81 -173 -81zM277 430q-41 0 -77 -25.5t-54 -63.5l1 -244q15 -20 58 -31q35 -10 67 -10q71 0 107 67q28 53 28 130q0 74 -27 120q-34 57 -103 57z" />
<glyph unicode="&#xff;" horiz-adv-x="467" d="M254 -84q-17 -47 -62.5 -79.5t-94.5 -32.5q-16 0 -70 18l25 71q28 -13 50 -14q46 -1 84 67l41 96l-191 436l76 21l152 -354l129 353l70 -17zM343 546q-22 0 -36 15t-14 37t14 37t36 15q21 0 35.5 -15.5t14.5 -36.5q0 -22 -14 -37t-36 -15zM134 546q-22 0 -36 15t-14 37 t14 37t36 15t35.5 -15t13.5 -37t-13.5 -37t-35.5 -15z" />
<glyph unicode="&#x152;" horiz-adv-x="1028" d="M609 0v223q-89 -226 -280 -226q-140 0 -217 105q-70 94 -70 239q0 136 78 224q81 92 215 92q186 0 274 -208v200h355v-72h-265v-193h255v-75h-258l1 -225h267v-84h-355zM334 581q-98 0 -156 -78q-52 -71 -52 -172q0 -98 51 -172q58 -84 152 -84t155 83q55 76 55 173 q0 101 -51 171q-57 79 -154 79z" />
<glyph unicode="&#x153;" horiz-adv-x="931" d="M281 445q-79 0 -121 -62q-35 -54 -35 -137q0 -79 33 -130q39 -62 113 -62q77 0 116 63q34 53 34 134q0 77 -31 130q-37 64 -109 64zM564 257q0 -148 84 -186q33 -15 69 -15q59 0 131 64l40 -56q-80 -76 -178 -76q-177 0 -219 165q-55 -164 -216 -164q-135 0 -195 101 q-41 69 -41 162q0 129 81 201q66 59 156 59q77 0 136 -45t82 -119q24 76 82 117.5t138 41.5q82 0 131 -53t49 -136v-61h-330zM815 332q0 109 -108 109q-60 0 -90.5 -29.5t-45.5 -91.5h244v12z" />
<glyph unicode="&#x178;" horiz-adv-x="482" d="M301 272v-272h-89v272l-178 355l80 23l145 -297l143 297l76 -23zM376 696q-22 0 -36 15t-14 37t14 37t36 15q21 0 35.5 -15.5t14.5 -36.5q0 -22 -14 -37t-36 -15zM166 696q-22 0 -36 15t-14 37t14 37t36 15q21 0 35.5 -15.5t14.5 -36.5q0 -22 -14 -37t-36 -15z" />
<glyph unicode="&#x2c6;" horiz-adv-x="337" d="M173 619l-138 -93v71l138 113l142 -113v-71z" />
<glyph unicode="&#x2dc;" horiz-adv-x="375" d="M275 549q-26 0 -74.5 34.5t-60.5 34.5q-39 0 -71 -42l-26 59q14 21 42.5 35t54.5 15q25 1 70.5 -33.5t62.5 -34.5q23 0 50 25l26 -60q-9 -11 -34.5 -22t-39.5 -11z" />
<glyph unicode="&#x2000;" horiz-adv-x="430" />
<glyph unicode="&#x2001;" horiz-adv-x="860" />
<glyph unicode="&#x2002;" horiz-adv-x="430" />
<glyph unicode="&#x2003;" horiz-adv-x="860" />
<glyph unicode="&#x2004;" horiz-adv-x="286" />
<glyph unicode="&#x2005;" horiz-adv-x="215" />
<glyph unicode="&#x2006;" horiz-adv-x="143" />
<glyph unicode="&#x2007;" horiz-adv-x="143" />
<glyph unicode="&#x2008;" horiz-adv-x="107" />
<glyph unicode="&#x2009;" horiz-adv-x="172" />
<glyph unicode="&#x200a;" horiz-adv-x="47" />
<glyph unicode="&#x2011;" horiz-adv-x="380" d="M50 267v93h280v-93h-280z" />
<glyph unicode="&#x2013;" d="M34 292v71h432v-71h-432z" />
<glyph unicode="&#x2014;" horiz-adv-x="1000" d="M27 292v71h946v-71h-946z" />
<glyph unicode="&#x2018;" horiz-adv-x="213" d="M186 708l-44 12q-91 -119 -92 -204h97q0 38 12 99t27 93z" />
<glyph unicode="&#x2019;" horiz-adv-x="241" d="M47 528l44 -12q91 119 92 204h-97q0 -38 -12 -98q-12 -63 -27 -94z" />
<glyph unicode="&#x201a;" horiz-adv-x="214" d="M97 -128l-55 -4q1 1 29 45q18 28 22 48q-64 3 -64 72q0 27 20.5 48t47.5 21q26 0 46.5 -21.5t20.5 -47.5q-1 -45 -20 -86q-10 -21 -47 -75z" />
<glyph unicode="&#x201c;" horiz-adv-x="443" d="M425 708l-44 12q-91 -119 -92 -204h97q0 38 12 99t27 93zM225 708l-44 12q-91 -119 -92 -204h97q0 38 12 99t27 93z" />
<glyph unicode="&#x201d;" horiz-adv-x="443" d="M31 528l44 -12q91 119 92 204h-97q0 -38 -12 -98q-12 -63 -27 -94zM231 528l44 -12q91 119 92 204h-97q0 -38 -12 -98q-12 -63 -27 -94z" />
<glyph unicode="&#x201e;" horiz-adv-x="417" d="M31 -72l44 -12q91 119 92 204h-97q0 -38 -12 -98q-12 -63 -27 -94zM231 -72l44 -12q91 119 92 204h-97q0 -38 -12 -98q-12 -63 -27 -94z" />
<glyph unicode="&#x2022;" horiz-adv-x="282" d="M140 190q-41 0 -66.5 30t-25.5 71t26 70.5t66 29.5t65.5 -30t25.5 -70t-25.5 -70.5t-65.5 -30.5z" />
<glyph unicode="&#x2026;" horiz-adv-x="621" d="M505 -16q-30 0 -48.5 19.5t-18.5 49.5q0 31 18 50t49 19q30 0 48 -19t18 -50q0 -30 -18 -49.5t-48 -19.5zM316 -16q-30 0 -48.5 19.5t-18.5 49.5q0 31 18 50t49 19q30 0 48 -19t18 -50q0 -30 -18 -49.5t-48 -19.5zM127 -16q-30 0 -48.5 19.5t-18.5 49.5q0 31 18 50t49 19 q30 0 48 -19t18 -50q0 -30 -18 -49.5t-48 -19.5z" />
<glyph unicode="&#x202f;" horiz-adv-x="172" />
<glyph unicode="&#x2039;" horiz-adv-x="319" d="M148 286l131 -161l-71 -3l-152 167l152 162l71 -3z" />
<glyph unicode="&#x203a;" horiz-adv-x="317" d="M118 122l-71 3l130 161l-130 162l71 3l153 -162z" />
<glyph unicode="&#x205f;" horiz-adv-x="215" />
<glyph unicode="&#x2122;" horiz-adv-x="641" d="M174 315h-64v275h-95v52h248v-52h-89v-275zM555 514l-76 -199h-54l-77 201v-201h-60v329h78l89 -229l89 229h75v-329h-64v199z" />
</font>
</defs>
</svg>
