<?xml version="1.0" standalone="no"?>
<!DOCTYPE svg PUBLIC "-//W3C//DTD SVG 1.1//EN" "http://www.w3.org/Graphics/SVG/1.1/DTD/svg11.dtd" >
<svg xmlns="http://www.w3.org/2000/svg">
<metadata>
This is a custom SVG webfont generated by Font Squirrel.
Foundry URL : http://mplus-fonts.sourceforge.jp
</metadata>
<defs>
<font id="webfontVd14f4NN" horiz-adv-x="500" >
<font-face units-per-em="1000" ascent="860" descent="-140" />
<missing-glyph horiz-adv-x="500" />
<glyph unicode=" " />
<glyph unicode="!" d="M200 730h100l-10 -515h-80zM195 0v130h110v-130h-110z" />
<glyph unicode="&#x22;" d="M275 780h100l-20 -280h-60zM125 780h100l-20 -280h-60z" />
<glyph unicode="#" d="M40 188v72h77l29 228h-71v72h80l21 170h82l-21 -170h76l21 170h82l-21 -170h65v-72h-74l-29 -228h68v-72h-77l-23 -188h-82l23 188h-76l-23 -188h-82l23 188h-68zM199 260h76l29 228h-76z" />
<glyph unicode="$" d="M293 311v-214q58 21 58 108q0 71 -58 106zM293 19v-104h-76v101q-70 6 -137 49v95q65 -57 137 -69v251q-77 31 -109.5 75.5t-32.5 117.5q0 76 37 122.5t105 55.5v102h76v-102q69 -8 127 -38v-90q-52 38 -127 52v-237q77 -31 109.5 -76.5t32.5 -118.5q0 -163 -142 -186z M217 429v207q-58 -18 -58 -101q0 -73 58 -106z" />
<glyph unicode="%" d="M60 260l380 290v-80l-380 -290v80zM160 740q61 0 95.5 -41t34.5 -119t-34.5 -119t-95.5 -41t-95.5 41t-34.5 119t34.5 119t95.5 41zM340 310q61 0 95.5 -41t34.5 -119t-34.5 -119t-95.5 -41t-95.5 41t-34.5 119t34.5 119t95.5 41zM160 488q52 0 52 92t-52 92t-52 -92 t52 -92zM340 58q52 0 52 92t-52 92t-52 -92t52 -92z" />
<glyph unicode="&#x26;" d="M228 665q-38 0 -60.5 -20t-22.5 -55q0 -29 12.5 -59t53.5 -95q59 51 79 83.5t20 70.5q0 33 -22 54t-60 21zM151 385l-9 14q-47 71 -63.5 111.5t-16.5 79.5q0 66 45 108t118 42t119 -42t46 -108q0 -57 -30.5 -106.5t-106.5 -112.5l119 -183v217h80v-253q-13 -28 -26 -46 l69 -106h-87l-33 49q-69 -59 -175 -59q-82 0 -128.5 46t-46.5 129q0 107 126 220zM331 115l-137 206q-84 -79 -84 -153q0 -51 27 -77t78 -26q70 0 116 50z" />
<glyph unicode="'" d="M195 780h110l-25 -280h-60z" />
<glyph unicode="(" d="M125 315q0 275 194 455h76q-196 -184 -196 -455t196 -455h-76q-194 180 -194 455z" />
<glyph unicode=")" d="M375 315q0 -275 -194 -455h-76q196 184 196 455t-196 455h76q194 -180 194 -455z" />
<glyph unicode="*" d="M214 750h72l-3 -169l160 55l22 -68l-161 -50l101 -135l-58 -42l-97 138l-97 -138l-58 42l101 135l-161 50l22 68l160 -55z" />
<glyph unicode="+" d="M291 555v-214h149v-72h-149v-214h-82v214h-149v72h149v214h82z" />
<glyph unicode="," d="M210 150h120l-110 -280h-70z" />
<glyph unicode="-" d="M100 269v72h300v-72h-300z" />
<glyph unicode="." d="M185 0v150h130v-150h-130z" />
<glyph unicode="/" d="M452 730l-332 -770h-72l332 770h72z" />
<glyph unicode="0" d="M250 740q48 0 82 -18t59 -60t37 -115.5t12 -181.5t-12 -181.5t-37 -115.5t-59 -60t-82 -18t-82 18t-59 60t-37 115.5t-12 181.5t12 181.5t37 115.5t59 60t82 18zM142 249l196 339q-26 82 -88 82q-36 0 -60 -26t-38 -95t-14 -184q0 -50 4 -116zM158 155q26 -95 92 -95 q36 0 60 26t38 95t14 184q0 78 -6 133z" />
<glyph unicode="1" d="M258 0v645l-2 1l-173 -101v80l175 105h82v-730h-82z" />
<glyph unicode="2" d="M175 74v-2h245v-72h-340v72q251 288 251 478q0 116 -93 116q-30 0 -76 -22.5t-82 -55.5v87q75 65 170 65q85 0 125 -47t40 -143q0 -99 -54 -208t-186 -268z" />
<glyph unicode="3" d="M330 656v2h-250v72h345v-72l-180 -229v-2h10q91 0 133 -51t42 -166q0 -220 -195 -220q-73 0 -145 30v87q77 -43 130 -43q64 0 95 34.5t31 111.5q0 89 -25 117t-101 28h-70v72z" />
<glyph unicode="4" d="M293 590h-2l-175 -341v-2h177v343zM293 175h-253v82l243 473h92v-483h85v-72h-85v-175h-82v175z" />
<glyph unicode="5" d="M180 430h2q33 30 88 30q160 0 160 -230q0 -125 -49.5 -182.5t-145.5 -57.5q-74 0 -145 30v87q75 -43 140 -43q116 0 116 166q0 156 -96 156q-46 0 -80 -41h-75l10 385h305v-72h-223z" />
<glyph unicode="6" d="M285 740q61 0 115 -20v-77q-50 25 -105 25q-70 0 -101 -48.5t-39 -184.5h2q50 50 113 50q87 0 128.5 -56t41.5 -184q0 -134 -46.5 -194.5t-138.5 -60.5q-65 0 -104 28.5t-60 101.5t-21 200q0 158 25.5 252t71 131t118.5 37zM255 62q54 0 78.5 39t24.5 144q0 94 -23.5 132 t-74.5 38q-106 0 -106 -160q0 -107 25 -150t76 -43z" />
<glyph unicode="7" d="M345 656v2h-270v72h350v-72q-128 -296 -210 -658h-88q84 353 218 656z" />
<glyph unicode="8" d="M255 670q-53 0 -81.5 -27.5t-28.5 -77.5q0 -54 29 -94t76 -51q52 14 80.5 51.5t28.5 93.5q0 47 -28.5 76t-75.5 29zM250 -10q-96 0 -148 51t-52 149q0 68 33 119t92 75v2q-48 23 -79 73.5t-31 105.5q0 82 49 128.5t136 46.5t136 -47t49 -128q0 -56 -30.5 -103.5 t-79.5 -70.5v-2q59 -23 92 -75t33 -124q0 -98 -52 -149t-148 -51zM255 60q53 0 84 33.5t31 96.5q0 130 -125 160q-61 -16 -90 -54.5t-29 -105.5q0 -62 35 -96t94 -34z" />
<glyph unicode="9" d="M215 -10q-61 0 -115 20v80q52 -26 105 -26q70 0 101 47.5t39 183.5h-2q-50 -50 -113 -50q-84 0 -127 59t-43 191q0 126 46 185.5t139 59.5q68 0 107 -28t58.5 -100.5t19.5 -201.5q0 -158 -25.5 -252t-71 -131t-118.5 -37zM245 668q-55 0 -79 -38t-24 -135t25 -138.5 t73 -41.5q49 0 77.5 41.5t28.5 128.5q0 100 -25 141.5t-76 41.5z" />
<glyph unicode=":" d="M190 390v150h120v-150h-120zM190 0v150h120v-150h-120z" />
<glyph unicode=";" d="M200 150h120l-110 -280h-70zM200 390v150h120v-150h-120z" />
<glyph unicode="&#x3c;" d="M435 510l-330 -204v-2l330 -204v-80l-380 245v80l380 245v-80z" />
<glyph unicode="=" d="M60 165v72h380v-72h-380zM60 373v72h380v-72h-380z" />
<glyph unicode="&#x3e;" d="M65 510v80l380 -245v-80l-380 -245v80l330 204v2z" />
<glyph unicode="?" d="M445 580q0 -41 -14 -77t-28.5 -55t-42.5 -49q-29 -33 -43 -52t-28 -55t-14 -77h-80q0 55 16.5 101.5t32.5 68t47 56.5q24 27 36 42.5t23 41.5t11 55q0 41 -29.5 63.5t-86.5 22.5q-85 0 -180 -61v90q93 45 190 45q91 0 140.5 -42t49.5 -118zM180 0v130h110v-130h-110z" />
<glyph unicode="@" d="M375 258v167q0 41 -16 63t-44 22q-40 0 -56 -29.5t-16 -115.5q0 -82 17 -113.5t55 -31.5q44 0 60 38zM165 365q0 215 140 215q38 0 73 -25h2v5q0 50 -27.5 79t-72.5 29q-83 0 -124 -70.5t-41 -232.5q0 -166 40 -234.5t125 -68.5q62 0 125 38v-80q-59 -30 -130 -30 q-122 0 -181 86t-59 289q0 197 60.5 286t179.5 89q87 0 133.5 -50t46.5 -150v-325q-65 -65 -140 -65q-76 0 -113 49t-37 166z" />
<glyph unicode="A" d="M249 660h-2l-83 -380h168zM348 210h-200l-46 -210h-82l180 730h100l180 -730h-86z" />
<glyph unicode="B" d="M157 430h45q80 0 116.5 29.5t36.5 90.5q0 57 -36 88.5t-102 31.5q-36 0 -60 -8v-232zM157 360v-292q37 -8 90 -8q126 0 126 160q0 140 -161 140h-55zM455 210q0 -220 -225 -220q-80 0 -155 15v720q75 15 155 15q205 0 205 -180q0 -61 -30.5 -103t-84.5 -56v-2 q58 -11 96.5 -64t38.5 -125z" />
<glyph unicode="C" d="M55 365q0 197 60.5 286t179.5 89q66 0 125 -30v-75q-60 33 -120 33q-165 0 -165 -303q0 -164 42 -233.5t123 -69.5q62 0 125 38v-80q-59 -30 -130 -30q-122 0 -181 86t-59 289z" />
<glyph unicode="D" d="M383 365q0 168 -43.5 235.5t-137.5 67.5q-33 0 -55 -8v-590q22 -8 55 -8q65 0 102.5 24.5t58 91.5t20.5 187zM465 365q0 -207 -63.5 -291t-199.5 -84q-70 0 -137 15v720q67 15 137 15q137 0 200 -85.5t63 -289.5z" />
<glyph unicode="E" d="M162 658v-228h248v-70h-248v-288h258v-72h-340v730h340v-72h-258z" />
<glyph unicode="F" d="M172 360v-360h-82v730h330v-72h-248v-228h238v-70h-238z" />
<glyph unicode="G" d="M370 85v275h-155v70h235v-400q-80 -40 -170 -40q-118 0 -179 89t-61 286q0 196 63.5 285.5t191.5 89.5q59 0 130 -25v-77q-66 30 -130 30q-87 0 -132 -72t-45 -231q0 -303 167 -303q45 0 85 23z" />
<glyph unicode="H" d="M140 730v-298h216v298h84v-730h-84v360h-216v-360h-80v730h80z" />
<glyph unicode="I" d="M410 0h-320v70h118v590h-118v70h320v-70h-118v-590h118v-70z" />
<glyph unicode="J" d="M400 730v-540q0 -110 -43.5 -155t-146.5 -45q-82 0 -150 30v87q29 -17 75.5 -31t74.5 -14q53 0 79 30.5t26 99.5v468h-165v70h250z" />
<glyph unicode="K" d="M157 400h2l206 330h95l-225 -350l230 -380h-95l-211 360h-2v-360h-82v730h82v-330z" />
<glyph unicode="L" d="M182 730v-658h238v-72h-320v730h82z" />
<glyph unicode="M" d="M378 540h-2l-88 -340h-80l-88 340h-2v-540h-78v730h92l119 -450h2l119 450h88v-730h-82v540z" />
<glyph unicode="N" d="M151 550h-2v-550h-84v730h84l204 -550h2v550h80v-730h-80z" />
<glyph unicode="O" d="M250 740q107 0 158.5 -84.5t51.5 -290.5t-51.5 -290.5t-158.5 -84.5t-158.5 84.5t-51.5 290.5t51.5 290.5t158.5 84.5zM250 62q44 0 71 25.5t43 93.5t16 184t-16 184t-43 93.5t-71 25.5t-71 -25.5t-43 -93.5t-16 -184t16 -184t43 -93.5t71 -25.5z" />
<glyph unicode="P" d="M375 520q0 79 -36 114.5t-112 35.5q-41 0 -70 -8v-292q30 -5 70 -5q77 0 112.5 35.5t35.5 119.5zM455 520q0 -120 -52.5 -172.5t-165.5 -52.5q-35 0 -80 5v-300h-82v725q78 15 160 15q114 0 167 -52.5t53 -167.5z" />
<glyph unicode="Q" d="M250 740q107 0 158.5 -84.5t51.5 -290.5q0 -273 -100 -344v-2q41 -21 73 -66t47 -103h-88q-21 78 -54 109t-88 31q-107 0 -158.5 84.5t-51.5 290.5t51.5 290.5t158.5 84.5zM250 62q44 0 71 25.5t43 93.5t16 184t-16 184t-43 93.5t-71 25.5t-71 -25.5t-43 -93.5t-16 -184 t16 -184t43 -93.5t71 -25.5z" />
<glyph unicode="R" d="M370 540q0 130 -148 130q-41 0 -70 -8v-272h60q87 0 122.5 33.5t35.5 116.5zM152 320v-320h-82v725q78 15 160 15q112 0 166 -49.5t54 -150.5q0 -143 -109 -193v-2q31 -15 66 -131l63 -214h-86l-59 216q-17 64 -41 84t-82 20h-50z" />
<glyph unicode="S" d="M260 668q-47 0 -77.5 -30.5t-30.5 -77.5q0 -50 21.5 -82.5t71.5 -55.5q111 -49 153 -102.5t42 -139.5q0 -94 -51.5 -142t-148.5 -48q-91 0 -165 55v95q80 -78 170 -78q113 0 113 118q0 55 -26 91t-87 64q-94 42 -134.5 95.5t-40.5 129.5q0 80 51 130t134 50q53 0 87 -8 t78 -32v-90q-77 58 -160 58z" />
<glyph unicode="T" d="M209 0v660h-154v70h390v-70h-154v-660h-82z" />
<glyph unicode="U" d="M250 -10q-95 0 -142.5 48.5t-47.5 151.5v540h84v-520q0 -81 26.5 -114.5t81.5 -33.5t81.5 33.5t26.5 114.5v520h80v-540q0 -103 -47.5 -151.5t-142.5 -48.5z" />
<glyph unicode="V" d="M253 70l135 660h82l-170 -730h-100l-170 730h86l135 -660h2z" />
<glyph unicode="W" d="M153 120h2l54 510h90l54 -510h2l45 610h75l-60 -730h-109l-55 520h-2l-55 -520h-109l-60 730h83z" />
<glyph unicode="X" d="M251 440h2l112 290h83l-148 -355l150 -375h-90l-111 305h-2l-112 -305h-85l150 375l-148 355h88z" />
<glyph unicode="Y" d="M251 375h2l132 355h85l-179 -440v-290h-82v290l-179 440h90z" />
<glyph unicode="Z" d="M335 658v2h-260v70h350v-70l-260 -588v-2h260v-70h-350v70z" />
<glyph unicode="[" d="M390 710h-178v-790h178v-60h-250v910h250v-60z" />
<glyph unicode="\" d="M48 730h72l332 -770h-72z" />
<glyph unicode="]" d="M110 710v60h250v-910h-250v60h178v790h-178z" />
<glyph unicode="^" d="M251 680h-2l-147 -400h-72l170 450h100l170 -450h-72z" />
<glyph unicode="_" d="M50 -140v56h400v-56h-400z" />
<glyph unicode="`" d="M130 810h120l100 -280h-70z" />
<glyph unicode="a" d="M255 530q100 0 137.5 -40t37.5 -150v-340h-72l-2 75h-2q-47 -85 -149 -85q-65 0 -105 41.5t-40 113.5q0 91 61.5 140.5t183.5 49.5h48v25q0 57 -22 80t-76 23q-33 0 -84 -12t-86 -28v72q35 15 85 25t85 10zM353 275h-48q-170 0 -170 -125q0 -45 23 -69t62 -24q59 0 96 48 t37 135v35z" />
<glyph unicode="b" d="M144 445h2q43 85 134 85q175 0 175 -270q0 -135 -48 -202.5t-127 -67.5q-84 0 -137 85h-2l-2 -75h-74v730h79v-285zM376 260q0 195 -116 195q-51 0 -83.5 -49.5t-32.5 -140.5v-10q0 -91 32.5 -140.5t83.5 -49.5q53 0 84.5 48.5t31.5 146.5z" />
<glyph unicode="c" d="M70 260q0 134 55 202t155 68q61 0 125 -25v-80q-60 33 -120 33q-63 0 -98 -50t-35 -148q0 -101 37 -151t101 -50q59 0 120 36v-80q-64 -25 -125 -25q-102 0 -158.5 67.5t-56.5 202.5z" />
<glyph unicode="d" d="M356 730h79v-730h-74l-2 75h-2q-53 -85 -137 -85q-79 0 -127 67.5t-48 202.5q0 270 175 270q91 0 134 -85h2v285zM124 260q0 -98 31.5 -146.5t84.5 -48.5q51 0 83.5 49.5t32.5 140.5v10q0 91 -32.5 140.5t-83.5 49.5q-116 0 -116 -195z" />
<glyph unicode="e" d="M138 234q4 -93 38 -134t99 -41q61 0 135 36v-80q-74 -25 -140 -25q-215 0 -215 270q0 141 50 205.5t150 64.5q91 0 135.5 -62t44.5 -203q0 -11 -2 -31h-295zM138 300h218q-1 161 -101 161q-57 0 -85 -36t-32 -125z" />
<glyph unicode="f" d="M75 431v69h120v60q0 98 33 139t107 41q45 0 90 -15v-72q-38 18 -75 18q-47 0 -61.5 -23.5t-14.5 -107.5v-40h151v-69h-151v-431h-79v431h-120z" />
<glyph unicode="g" d="M50 260q0 270 175 270q83 0 137 -85h2l2 75h74v-515q0 -125 -50.5 -180t-154.5 -55q-71 0 -140 25v80q71 -36 140 -36q126 0 126 166v80h-2q-43 -85 -134 -85q-80 0 -127.5 66t-47.5 194zM129 260q0 -92 31.5 -138.5t84.5 -46.5q52 0 84 45.5t32 134.5v10 q0 91 -32.5 140.5t-83.5 49.5q-58 0 -87 -46.5t-29 -148.5z" />
<glyph unicode="h" d="M440 330v-330h-77v312q0 88 -20 117.5t-73 29.5q-50 0 -85.5 -56t-35.5 -151v-252h-79v730h79v-285h2q19 39 56.5 62t82.5 23q79 0 114.5 -45.5t35.5 -154.5z" />
<glyph unicode="i" d="M316 520v-452h109v-68h-330v68h139v384h-109v68h191zM214 640v120h102v-120h-102z" />
<glyph unicode="j" d="M249 -33v485h-119v68h201v-553q0 -65 -8.5 -101t-36.5 -59t-72 -30t-123 -7v68q40 0 63 1t42.5 6.5t28.5 12.5t15.5 23.5t7.5 34.5t1 51zM229 640v120h102v-120h-102z" />
<glyph unicode="k" d="M460 520l-230 -250l230 -270h-95l-206 253v-253h-79v730h79v-444l207 234h94z" />
<glyph unicode="l" d="M281 150q0 -66 10.5 -79t63.5 -13q33 0 75 6v-69q-47 -5 -85 -5q-90 0 -118 28.5t-28 121.5v522h-129v68h211v-580z" />
<glyph unicode="m" d="M290 0h-78v360q-1 58 -10.5 77.5t-32.5 19.5q-20 0 -35 -24t-25 -83.5t-10 -149.5v-200h-79v520h70l2 -70h2q17 38 42.5 59t53.5 21q31 0 50.5 -18.5t33.5 -61.5h2q39 80 104 80q53 0 76.5 -32.5t23.5 -117.5v-380h-77v360q-1 59 -11.5 78t-37.5 19q-64 0 -64 -197v-260z " />
<glyph unicode="n" d="M440 330v-330h-77v312q0 88 -20 117.5t-73 29.5q-50 0 -85.5 -56t-35.5 -151v-252h-79v520h74l2 -75h2q19 38 58 61.5t84 23.5q79 0 114.5 -45.5t35.5 -154.5z" />
<glyph unicode="o" d="M250 530q200 0 200 -270t-200 -270t-200 270t200 270zM250 59q61 0 89.5 45.5t28.5 155.5t-28.5 155.5t-89.5 45.5t-89.5 -45.5t-28.5 -155.5t28.5 -155.5t89.5 -45.5z" />
<glyph unicode="p" d="M141 75h-2v-295h-79v740h74l2 -75h2q54 85 137 85q175 0 175 -270q0 -135 -48 -202.5t-127 -67.5q-91 0 -134 85zM371 260q0 195 -116 195q-51 0 -83.5 -49.5t-32.5 -140.5v-10q0 -91 32.5 -140.5t83.5 -49.5q53 0 84.5 48.5t31.5 146.5z" />
<glyph unicode="q" d="M359 75q-43 -85 -134 -85q-79 0 -127 67.5t-48 202.5q0 270 175 270q83 0 137 -85h2l2 75h74v-740h-79v295h-2zM129 260q0 -98 31.5 -146.5t84.5 -48.5q51 0 83.5 49.5t32.5 140.5v10q0 91 -32.5 140.5t-83.5 49.5q-116 0 -116 -195z" />
<glyph unicode="r" d="M186 520v-100h2q62 110 172 110q37 0 70 -10v-70q-35 11 -70 11q-73 0 -122 -61t-49 -160v-240h-79v520h76z" />
<glyph unicode="s" d="M255 463q-96 0 -96 -73q0 -34 21 -54.5t75 -35.5q106 -30 140.5 -63t34.5 -102t-47 -107t-133 -38t-165 40v80q78 -53 155 -53q111 0 111 78q0 37 -21.5 57t-84.5 38q-92 26 -128.5 62t-36.5 98q0 66 43.5 103t126.5 37q84 0 160 -35v-75q-79 43 -155 43z" />
<glyph unicode="t" d="M244 500h181v-69h-181v-281q0 -56 16.5 -74.5t64.5 -18.5q50 0 90 18v-70q-48 -15 -100 -15q-84 0 -117 32.5t-33 117.5v291h-100v69h100v190h79v-190z" />
<glyph unicode="u" d="M65 180v340h77v-322q0 -83 18.5 -110t69.5 -27q49 0 82.5 55t33.5 152v252h79v-520h-74l-2 75h-2q-19 -40 -56 -62.5t-81 -22.5q-77 0 -111 43t-34 147z" />
<glyph unicode="v" d="M251 60h2l115 460h82l-145 -520h-110l-145 520h86z" />
<glyph unicode="w" d="M351 80h2l49 440h78l-80 -520h-99l-54 440h-2l-49 -440h-96l-80 520h82l49 -440h2l49 440h100z" />
<glyph unicode="x" d="M251 305h2l104 215h88l-145 -260l145 -260h-94l-102 215h-2l-102 -215h-90l145 260l-145 260h92z" />
<glyph unicode="y" d="M259 120h2l117 400h87l-240 -740h-83l78 230l-175 510h88z" />
<glyph unicode="z" d="M80 520h340v-69l-248 -380v-2h248v-69h-340v69l248 380v2h-248v69z" />
<glyph unicode="{" d="M195 316l4 -2q81 -38 81 -149v-135q0 -72 16.5 -91t78.5 -19h40v-60h-65q-73 0 -107.5 35.5t-34.5 114.5v150q0 66 -21.5 95.5t-66.5 29.5h-45v60h45q45 0 66.5 29.5t21.5 95.5v150q0 79 34.5 114.5t107.5 35.5h65v-60h-40q-62 0 -78.5 -19t-16.5 -91v-135q0 -61 -20 -95 t-65 -54z" />
<glyph unicode="|" d="M212 -220v1030h76v-1030h-76z" />
<glyph unicode="}" d="M305 316q-45 20 -65 54t-20 95v135q0 72 -16.5 91t-78.5 19h-40v60h65q73 0 107.5 -35.5t34.5 -114.5v-150q0 -66 21.5 -95.5t66.5 -29.5h45v-60h-45q-45 0 -66.5 -29.5t-21.5 -95.5v-150q0 -79 -34.5 -114.5t-107.5 -35.5h-65v60h40q62 0 78.5 19t16.5 91v135 q0 111 81 149z" />
<glyph unicode="~" d="M50 602v75q42 33 95 33q61 0 125 -48q48 -35 80 -35q25 0 47 10t53 39v-75q-42 -33 -95 -33q-61 0 -125 48q-47 35 -80 35q-25 0 -47 -10t-53 -39z" />
<glyph unicode="&#xa0;" />
<glyph unicode="&#xa5;" d="M251 375h2l132 355h85l-153 -375h123v-65h-149v-85h149v-65h-149v-140h-82v140h-149v65h149v85h-149v65h123l-153 375h90z" />
<glyph unicode="&#xad;" d="M100 269v72h300v-72h-300z" />
<glyph unicode="&#x2000;" horiz-adv-x="407" />
<glyph unicode="&#x2001;" horiz-adv-x="815" />
<glyph unicode="&#x2002;" horiz-adv-x="407" />
<glyph unicode="&#x2003;" horiz-adv-x="815" />
<glyph unicode="&#x2004;" horiz-adv-x="271" />
<glyph unicode="&#x2005;" horiz-adv-x="203" />
<glyph unicode="&#x2006;" horiz-adv-x="135" />
<glyph unicode="&#x2007;" horiz-adv-x="135" />
<glyph unicode="&#x2008;" horiz-adv-x="101" />
<glyph unicode="&#x2009;" horiz-adv-x="163" />
<glyph unicode="&#x200a;" horiz-adv-x="45" />
<glyph unicode="&#x2010;" d="M100 269v72h300v-72h-300z" />
<glyph unicode="&#x2011;" d="M100 269v72h300v-72h-300z" />
<glyph unicode="&#x2013;" d="M60 269v72h380v-72h-380z" />
<glyph unicode="&#x2014;" d="M20 269v72h460v-72h-460z" />
<glyph unicode="&#x2018;" d="M275 500h-120l110 280h70z" />
<glyph unicode="&#x2019;" d="M220 780h120l-110 -280h-70z" />
<glyph unicode="&#x201c;" d="M340 500h-110l110 280h60zM190 500h-110l110 280h60z" />
<glyph unicode="&#x201d;" d="M300 780h110l-110 -280h-60zM150 780h110l-110 -280h-60z" />
<glyph unicode="&#x2026;" horiz-adv-x="1000" d="M102 288v150h130v-150h-130zM435 288v150h130v-150h-130zM768 288v150h130v-150h-130z" />
<glyph unicode="&#x202f;" horiz-adv-x="163" />
<glyph unicode="&#x205f;" horiz-adv-x="203" />
<glyph unicode="&#x2122;" horiz-adv-x="1000" d="M878 540h-2l-88 -340h-80l-88 340h-2v-540h-78v730h92l119 -450h2l119 450h88v-730h-82v540zM209 0v660h-154v70h390v-70h-154v-660h-82z" />
</font>
</defs>
</svg>
