<?xml version="1.0" standalone="no"?>
<!DOCTYPE svg PUBLIC "-//W3C//DTD SVG 1.1//EN" "http://www.w3.org/Graphics/SVG/1.1/DTD/svg11.dtd" >
<svg xmlns="http://www.w3.org/2000/svg">
<metadata>
This is a custom SVG webfont generated by Font Squirrel.
Copyright   : Copyright (c) Andrew Paglinawan, 2008. All rights reserved.
Designer    : Andrew Paglinawan
Foundry     : Andrew Paglinawan
</metadata>
<defs>
<font id="webfont" horiz-adv-x="500" >
<font-face units-per-em="1000" ascent="800" descent="-200" />
<missing-glyph horiz-adv-x="300" />
<glyph unicode=" "  horiz-adv-x="300" />
<glyph unicode="&#x09;" horiz-adv-x="300" />
<glyph unicode="&#xa0;" horiz-adv-x="300" />
<glyph unicode="!" horiz-adv-x="252" d="M267 701q23 0 36.5 -16.5t9.5 -39.5l-65 -370q-5 -23 -24 -39.5t-42 -16.5t-36 16.5t-9 39.5l65 370q4 23 23 39.5t42 16.5zM167 133q23 0 36.5 -16t9.5 -39l-4 -22q-4 -23 -23 -39t-42 -16t-36.5 16t-9.5 39l4 22q4 22 23 38.5t42 16.5z" />
<glyph unicode="&#x22;" horiz-adv-x="410" d="M289 433l17 214q2 24 17.5 40t39.5 16h40q14 0 23 -9t9 -24q0 -6 -4 -22l-73 -222q-11 -31 -36 -31q-15 0 -24.5 10.5t-8.5 27.5zM69 433l18 214q2 24 17.5 40t39.5 16h39q15 0 24 -9t9 -24q0 -6 -4 -22l-73 -222q-11 -31 -36 -31q-15 0 -25 10.5t-9 27.5z" />
<glyph unicode="#" horiz-adv-x="700" d="M125 56l18 105h-46q-22 0 -37 15t-15 37q0 21 15 36.5t37 15.5h64l30 174h-58q-21 0 -36.5 15.5t-15.5 36.5t15.5 36.5t36.5 15.5h76l20 119q3 19 17.5 31t34.5 12q24 0 39.5 -18.5t12.5 -42.5l-18 -101h157l20 119q3 19 18 31t35 12q24 0 39.5 -19t11.5 -42l-17 -101h46 q21 0 36.5 -15t15.5 -37q0 -21 -15.5 -36.5t-36.5 -15.5h-64l-30 -174h57q22 0 37 -15t15 -37q0 -21 -15 -36.5t-37 -15.5h-75l-21 -123q-3 -19 -17.5 -31t-34.5 -12q-24 0 -40 18.5t-12 42.5l19 105h-157l-21 -123q-3 -18 -17.5 -30.5t-35.5 -12.5q-24 0 -39.5 18t-11.5 43 zM268 265h156l30 174h-156z" />
<glyph unicode="$" horiz-adv-x="632" d="M401 720q3 18 18 30.5t33 12.5t28.5 -12.5t7.5 -30.5l-4 -22q81 -10 145 -55q27 -16 22 -48q-4 -23 -23.5 -39t-42.5 -16q-15 0 -28 9q-50 33 -96 44l-34 -192q110 -29 152.5 -77.5t28.5 -128.5q-14 -81 -81.5 -133.5t-165.5 -61.5l-11 -60q-3 -18 -17.5 -30.5 t-32.5 -12.5t-29 12.5t-8 30.5l11 62q-110 12 -191 78q-23 17 -19 48q5 23 23.5 39t41.5 16q18 0 31 -11q65 -54 136 -67l35 197q-107 29 -150 76t-28 130q14 80 81 131.5t163 59.5zM489 188q6 34 -11.5 55.5t-70.5 39.5l-32 -182q100 11 114 87zM273 515q-6 -33 10.5 -54 t68.5 -39l31 177q-47 -4 -76 -27t-34 -57z" />
<glyph unicode="&#x26;" horiz-adv-x="696" d="M571 447q23 5 40.5 -7.5t18.5 -34.5q1 -18 -2 -40q-10 -61 -61 -94q-6 -5 -11 -7l-3 -24q-18 -100 -100.5 -170t-182.5 -70t-157.5 70t-40.5 170q18 106 109 177q-20 47 -10 97q13 77 77 131.5t141 54.5t122 -54.5t31 -131.5q-4 -23 -23 -39t-42 -16t-36 16t-9 39 q5 31 -13 53t-49 22t-57 -21.5t-32 -53.5q-6 -40 21 -61q16 -13 16.5 -34t-13.5 -40h-1l-2 -4q-5 -5 -13 -11l-4 -2q-1 0 -1 -1l-2 -1q-4 -2 -5 -3q-36 -16 -61.5 -47.5t-32.5 -69.5q-10 -53 21.5 -91t84.5 -38q54 0 98.5 38t54.5 91q0 1 0.5 3t0.5 3q-58 0 -80 -19 q-9 -8 -12 -22q-1 -5 -1 -10q3 -22 -11.5 -42t-37.5 -27q-5 -2 -16 -2q-18 0 -31 10.5t-15 28.5q-4 13 2 42q9 60 59 101q62 51 165 51q5 0 16 -0.5t17 -0.5h2q9 0 12 1t3 2q2 0 2 6q2 8 1 16q-1 23 14.5 42t38.5 24z" />
<glyph unicode="'" horiz-adv-x="230" d="M69 433l18 214q2 24 17.5 40t39.5 16h39q15 0 24.5 -9t9.5 -24q0 -6 -4 -22l-73 -222q-11 -31 -37 -31q-15 0 -25 10.5t-9 27.5z" />
<glyph unicode="(" horiz-adv-x="430" d="M148 -56q-38 35 -56 96q-29 104 0 265q21 121 61 206q49 104 122 154q58 40 127 40q26 0 41 -18.5t10 -44.5t-26.5 -45t-47.5 -19q-25 0 -44 -13q-22 -14 -44 -49q-50 -76 -72 -211q-19 -99 -10 -171q7 -67 34 -89q14 -13 40 -14q26 0 41 -18.5t10 -44.5 q-4 -26 -26 -44.5t-48 -18.5h-2q-66 0 -110 39z" />
<glyph unicode=")" horiz-adv-x="430" d="M371 666q38 -35 56 -96q29 -104 0 -265q-21 -121 -61 -206q-49 -104 -122 -154q-58 -40 -127 -40q-26 0 -41 18.5t-10 44.5t26.5 45t47.5 19q25 0 44 13q22 14 44 49q50 76 72 211q19 99 10 171q-7 67 -34 89q-14 13 -40 14q-26 0 -41 18.5t-10 44.5q4 26 26 44.5 t48 18.5h2q66 0 110 -39z" />
<glyph unicode="*" horiz-adv-x="430" d="M349 623q-3 -20 -27 -30l-71 -27l61 -28q20 -8 17 -30q-2 -13 -13.5 -22t-23.5 -9q-11 0 -21 10l-48 42l-3 -66q-1 -15 -11 -25.5t-25 -10.5t-21 10t-1 26l20 66l-63 -42q-13 -10 -24 -10q-13 0 -20.5 9.5t-5.5 22.5q4 21 27 29l70 28l-60 27q-20 9 -17 31q2 12 13.5 21 t24.5 9q10 0 20 -10l48 -42l3 66q1 16 11 26.5t25 10.5q14 0 20.5 -10.5t1.5 -25.5l-20 -67l63 42q13 10 25 10t20 -9.5t5 -21.5z" />
<glyph unicode="+" horiz-adv-x="620" d="M413 401q21 0 33.5 -15.5t8.5 -37.5t-23.5 -38t-40.5 -16h-86l-18 -86q-5 -21 -24 -37t-41 -16t-34.5 16t-7.5 37l18 86h-86q-22 0 -34 16t-8 38t23 37.5t41 15.5h86l17 86q5 21 23.5 37t40.5 16t35 -16t8 -37l-17 -86h86z" />
<glyph unicode="," horiz-adv-x="230" d="M151 58q0 -1 0.5 -3t0.5 -6.5v-9.5q0 -32 -16.5 -63.5t-60.5 -42.5h-3q-12 0 -15 12q-3 13 12 18q31 7 45 39q-3 -1 -14 -1q-19 0 -32.5 14t-13.5 34t13.5 34.5t32.5 14.5q18 0 31.5 -11t17.5 -28q0 -1 2 -1z" />
<glyph unicode="-" horiz-adv-x="408" d="M288 308h-186q-15 0 -25.5 10.5t-10.5 25.5t10.5 25.5t25.5 10.5h186q15 0 25 -10.5t10 -25.5t-10 -25.5t-25 -10.5z" />
<glyph unicode="." horiz-adv-x="230" d="M181 50q0 -20 -14.5 -35t-34.5 -15t-35 15t-15 35t15 34.5t35 14.5t34.5 -14.5t14.5 -34.5z" />
<glyph unicode="/" d="M36 4q-22 8 -30.5 29.5t0.5 42.5l245 583q9 21 30 29.5t43 -0.5q20 -8 28.5 -29.5t-0.5 -41.5l-245 -584q-14 -33 -51 -33q-12 0 -20 4z" />
<glyph unicode="0" horiz-adv-x="710" d="M395 699q56 0 99 -30t67 -81q50 -99 25 -239q-24 -139 -109 -239q-92 -111 -205 -111q-56 0 -99 30t-67 81q-50 99 -25 239q24 139 109 239q94 111 205 111zM396 172q61 71 80 177q18 107 -18 178q-31 63 -82 61q-51 2 -105 -61q-61 -73 -79 -178q-19 -105 17 -177 q30 -62 82 -62t105 62z" />
<glyph unicode="1" horiz-adv-x="335" d="M286 653v-6v-1q0 -2 -1 -2l-104 -590q-4 -23 -23 -39t-42 -16t-36 16.5t-9 38.5l87 493l-44 -24q-16 -8 -30 -8q-30 0 -43 27q-8 20 1.5 42.5t31.5 33.5l136 73q0 1 1 1t2 1q4 2 6 2q1 1 3 1t3 1q1 0 2.5 0.5t2.5 0.5q2 1 6 1h4h1q4 0 6 -1h5q1 0 2.5 -1t2.5 -1t2 -1 t2 -1q4 -2 5 -2l2 -1q2 -1 2 -2l4 -4l3 -3q1 0 1 -2t1 -2q1 -1 2 -2.5t1 -2.5l1 -1q0 -2 1 -3v-3l1 -2q0 -1 0.5 -3t0.5 -3v-5z" />
<glyph unicode="2" horiz-adv-x="590" d="M474 109q23 0 36.5 -16.5t9.5 -39.5q-5 -23 -24 -39t-41 -16h-353h-2h-2q-25 0 -37 18q-13 17 -8 40t25 39l343 267q49 39 59 96q9 49 -18 87q-32 42 -88 42q-50 0 -93 -33l-36 -28q-20 -16 -42.5 -14.5t-35.5 18.5q-12 16 -6.5 39t24.5 39l36 28q80 62 172 62 q106 0 164 -79q50 -68 34 -161q-18 -106 -110 -178l-219 -171h212z" />
<glyph unicode="3" horiz-adv-x="610" d="M441 473q38 -19 62 -49q60 -72 42 -175q-18 -102 -104 -176q-87 -73 -189 -73t-163 73q-13 17 -9 40t24 40t43 17t37 -17q32 -39 88 -39q55 0 103 39q46 40 56 96t-22 95q-31 38 -88 40q-24 -1 -39 18l-1 1q-13 17 -9.5 40t22.5 40l120 104h-161q-24 0 -37.5 16.5 t-9.5 40.5q4 23 23.5 39.5t43.5 16.5h295q23 0 36.5 -16.5t9.5 -39.5q-1 -11 -11 -27q-8 -10 -13 -14z" />
<glyph unicode="4" horiz-adv-x="664" d="M555 239q23 0 36 -16.5t9 -38.5q-4 -23 -23 -39.5t-42 -16.5h-10l-13 -75q-4 -23 -23 -39t-42 -16t-36.5 16t-9.5 39l14 75h-313h-2q-19 0 -32 13q-16 14 -14 37t19 40l451 459q0 2 2 2l5 5q1 0 2 1l2 2l6 3q2 2 4 2l6 3q1 0 2.5 0.5t2.5 0.5q2 1 6 1q2 1 6 1h2h3 q3 0 5 -1q4 0 5 -1h3l2 -1q1 -1 2.5 -1t2.5 -1l2 -2t2 -1t2 -1l2 -2q1 0 1 -0.5t1 -0.5l2 -2q1 0 2 -2l1 -2l1 -2q1 -2 2 -2q0 -1 2 -5q1 -1 1 -2q1 -2 1 -3q0 -3 1 -4v-6q1 -1 1 -4q0 -1 -0.5 -3.5t-0.5 -3.5v-2l-71 -404h10zM235 239h199l44 247z" />
<glyph unicode="5" horiz-adv-x="605" d="M537 588h-246l-30 -99q34 9 69 9q102 0 162 -73q60 -72 42 -175t-104 -176q-87 -73 -189 -73q-104 0 -162 73q-14 17 -10 40t24 40q19 16 43 16t37 -16q31 -38 88 -40q57 2 103 40q46 40 57 96q10 56 -23 95t-88 39q-56 0 -103 -39q-19 -17 -43 -17t-37 17q-4 4 -8 14v2 q-1 1 -1 3t-1 3v6v2q-1 7 2 17l76 258q8 27 32 40q1 0 2 1l2 2l4 2q12 6 27 6h295q23 0 36.5 -16.5t9.5 -40.5q-4 -23 -23.5 -39.5t-42.5 -16.5z" />
<glyph unicode="6" horiz-adv-x="642" d="M362 487q101 0 159.5 -71.5t40.5 -171.5q-18 -101 -101.5 -171.5t-183.5 -70.5q-94 0 -152.5 62.5t-50.5 155.5l-1 1q4 38 8 58q20 110 71 205q64 114 159 171q74 44 159 47q23 1 37 -14.5t11 -38.5t-21.5 -39.5t-41.5 -17.5q-53 -3 -99 -29q-42 -26 -76 -70 q-6 -8 -18 -26q53 20 100 20zM296 113q55 0 100 38.5t55 92.5q10 55 -21.5 93.5t-86.5 38.5t-100.5 -38.5t-55.5 -93.5q-9 -54 22.5 -92.5t86.5 -38.5z" />
<glyph unicode="7" horiz-adv-x="587" d="M536 654q0 -13 -4 -22q-1 -6 -5 -11l-352 -589q-21 -34 -57 -34q-7 0 -21 4q-19 9 -24 30.5t8 42.5l306 512h-258q-23 0 -36.5 16.5t-9.5 39.5q5 23 24 39t41 16h341q8 0 12 -1q10 -1 18 -8l3 -3l4 -4q1 -2 3 -4q2 -4 2 -5l1 -1q0 -2 1 -2q1 -1 1 -3t1 -3v-5q1 -1 1 -5z " />
<glyph unicode="8" horiz-adv-x="630" d="M484 435q43 -33 62.5 -85.5t9.5 -113.5q-17 -98 -99.5 -168t-181.5 -70q-98 0 -156 70t-40 168q10 61 48 113.5t93 85.5q-25 43 -15 98q12 68 69 116.5t125 48.5t108 -48.5t28 -116.5q-11 -56 -51 -98zM379 589q-23 0 -42 -16.5t-24 -39.5q-4 -22 10 -38.5t37 -17.5 q23 1 42 17t24 39q4 23 -9.5 39.5t-37.5 16.5zM294 107q54 0 98.5 38t54.5 91q9 54 -22 92t-85 38t-98.5 -38t-54.5 -92q-9 -53 22.5 -91t84.5 -38z" />
<glyph unicode="9" horiz-adv-x="642" d="M578 482v-2q-4 -38 -8 -58q-18 -109 -71 -205q-65 -115 -159 -171q-75 -44 -158 -47h-3q-22 0 -35.5 15.5t-10.5 37.5q4 23 22.5 40t41.5 18q52 1 99 29q41 23 75 70q10 11 18 26q-48 -20 -100 -20q-100 0 -158.5 70.5t-41.5 171.5q18 100 101.5 171t184.5 71 q93 0 151.5 -62.5t51.5 -154.5zM309 325q55 0 100 38.5t55 93.5q10 54 -22 92.5t-87 38.5t-100 -38.5t-55 -92.5q-10 -55 22 -93.5t87 -38.5z" />
<glyph unicode=":" horiz-adv-x="240" d="M190 50q-3 -20 -20.5 -35t-37.5 -15q-19 0 -31.5 15t-9.5 35q4 20 21.5 34.5t37.5 14.5t32 -14.5t8 -34.5zM264 473q-4 -20 -21 -35t-37 -15t-32.5 15.5t-8.5 34.5q4 20 21.5 34.5t37.5 14.5t32 -14.5t8 -34.5z" />
<glyph unicode=";" horiz-adv-x="240" d="M257 471q-4 -20 -21 -35t-37 -15t-32.5 15.5t-8.5 34.5q4 20 22 34.5t38 14.5t31.5 -14.5t7.5 -34.5zM175 60q0 -7 -2 -19q-4 -19 -12 -37.5t-31 -40t-55 -28.5h-3q-12 0 -12 12q-2 12 15 18q33 7 53 39q-4 -1 -15 -1q-19 0 -29.5 14t-6.5 34t20 34.5t35 14.5 q18 0 29.5 -11t12.5 -28q-1 -1 1 -1z" />
<glyph unicode="&#x3c;" horiz-adv-x="620" d="M512 682q16 -19 11.5 -45t-26.5 -45l-282 -241l197 -241q15 -19 10.5 -45.5t-26.5 -45.5q-22 -18 -49 -18q-26 0 -42 19l-233 286q-4 4 -5 8q-1 1 -1 2l-3 8q-1 1 -1 3q-1 2 -1 7l-1 2v3t0.5 2.5t0.5 2.5v7q0 1 0.5 2t0.5 2t1 4t2 4q0 2 1 3q2 6 4 9l1 1q6 11 17 20 l334 286q22 19 48.5 19t41.5 -19z" />
<glyph unicode="=" horiz-adv-x="620" d="M115 259q-15 0 -25.5 10.5t-10.5 25.5t10.5 25.5t25.5 10.5h186q15 0 25 -10.5t10 -25.5t-10 -25.5t-25 -10.5h-186zM115 372q-15 0 -25.5 10t-10.5 25q0 14 10.5 24.5t25.5 10.5h186q15 0 25 -10.5t10 -24.5q0 -15 -10 -25t-25 -10h-186z" />
<glyph unicode="&#x3e;" horiz-adv-x="620" d="M562 357q0 -4 -1 -6q0 -3 -1 -4q0 -4 -2 -8v-1l-1 -2l-2.5 -5t-2.5 -4l-1 -2q-5 -8 -7 -9l-1 -2l-8 -8l-335 -286q-20 -19 -48 -19q-27 0 -42 18q-16 19 -11 45.5t27 45.5l282 241l-197 241q-16 19 -11 45t27 45t48.5 19t41.5 -19l234 -286q4 -6 5 -9l1 -1q2 -6 3 -8v-1 q0 -1 1 -2q0 -5 1 -7v-5v-6z" />
<glyph unicode="?" horiz-adv-x="534" d="M165 122q21 0 33.5 -15t8.5 -37l-3 -19q-4 -22 -21.5 -37t-39.5 -15q-21 0 -33.5 15t-8.5 37l3 19q4 22 21.5 37t39.5 15zM266 699q92 0 145 -65t37 -156q-13 -78 -71.5 -138t-135.5 -77l-13 -69q-4 -22 -21.5 -36.5t-38.5 -14.5t-33.5 14.5t-8.5 36.5l19 110l1 1v1v2 q4 21 21.5 36t38.5 15q49 0 90 34.5t50 84.5q8 49 -20.5 83.5t-77.5 34.5q-69 0 -113 -59q-14 -18 -35 -23.5t-38 5.5q-17 10 -19 30.5t12 39.5q38 50 94.5 80t116.5 30z" />
<glyph unicode="@" horiz-adv-x="980" d="M499 702q145 0 229.5 -102.5t58.5 -247.5q-14 -83 -67 -160v-1l-1 -1l-5 -6q-4 -6 -11.5 -13l-15.5 -15q-42 -38 -86 -48q-12 -4 -27 -4q-23 0 -41.5 11t-27.5 27q-7 12 -11 30q-48 -23 -93 -23q-81 0 -127 61q-46 59 -31 142q15 82 81 142q68 61 149 61t127 -61 q46 -59 31 -142q0 -3 -2 -7v-4l-21 -119q1 0 8 5q13 13 15 17q34 48 45 108q17 99 -40.5 169t-156.5 70t-181.5 -70t-99.5 -169t40.5 -169t156.5 -70q33 0 60 7q23 5 41 -6.5t19 -33.5q2 -22 -13 -42t-38 -25q-46 -11 -89 -11q-145 0 -229.5 102.5t-58.5 247.5t146.5 247.5 t265.5 102.5zM483 286q31 28 37 66q8 39 -14 66q-18 26 -53 26q-34 0 -62 -26q-31 -28 -37 -66q-7 -40 14 -66q18 -26 53 -26q34 0 62 26z" />
<glyph unicode="A" horiz-adv-x="646" d="M239 165l-72 -129q-20 -36 -58 -36q-10 0 -19 3q-20 8 -25.5 29t6.5 43l325 589q19 36 59 36q39 0 47 -36l117 -589q5 -22 -8.5 -43t-36.5 -29q-10 -3 -20 -3q-17 0 -29.5 10t-15.5 26l-26 129h-244zM300 275h161l-43 215z" />
<glyph unicode="B" horiz-adv-x="594" d="M155 -1q-23 0 -36 16.5t-9 38.5l104 590q4 23 23 39t42 16h1h1h139q79 0 124.5 -56t32.5 -135q-12 -64 -58 -113q41 -29 60 -77t9 -105q-16 -89 -90 -151.5t-162 -62.5h-178h-2h-1zM355 110q43 0 79 30t43 73q8 43 -17 73.5t-68 30.5h-125l-37 -207h125zM466 508 q6 33 -13.5 56.5t-52.5 23.5h-85l-29 -160h86q33 0 60.5 23.5t33.5 56.5z" />
<glyph unicode="C" horiz-adv-x="719" d="M404 0q-148 0 -235 102t-62 248q26 145 149 247.5t271 102.5q127 0 209 -76q16 -14 14.5 -37t-18.5 -41t-40 -20.5t-39 11.5q-60 52 -146 52q-102 0 -187 -70q-86 -71 -102 -169q-18 -98 42 -169q60 -70 163 -70q88 0 164 52q20 14 42.5 11t33.5 -21t4 -41t-28 -36 q-109 -76 -235 -76z" />
<glyph unicode="D" horiz-adv-x="719" d="M155 0q-23 0 -36 16.5t-9 39.5l103 589q4 23 23.5 39t42.5 16h118q145 0 229 -102.5t59 -247.5q-17 -95 -78 -175.5t-150 -127.5t-184 -47h-117h-1zM574 350q17 100 -40.5 169.5t-156.5 70.5h-63l-84 -479h63q99 0 181.5 70t99.5 169z" />
<glyph unicode="E" horiz-adv-x="593" d="M155 -2q-23 0 -36.5 16t-9.5 39l104 590q4 23 23 39t42 16h1h1h324q23 0 36.5 -16t9.5 -39q-5 -23 -24 -39.5t-41 -16.5h-271l-33 -184h234q23 0 36 -16t9 -39t-23 -39t-42 -16h-233l-33 -184h271q23 0 36.5 -16.5t9.5 -39.5q-5 -23 -24 -39t-41 -16h-325h-1z" />
<glyph unicode="F" horiz-adv-x="600" d="M155 0q-23 0 -36 16.5t-9 38.5l104 590q4 23 23 39t42 16h1h1h324q23 0 36 -16.5t9 -38.5q-4 -23 -23 -39.5t-42 -16.5h-270l-33 -184h233q23 0 36.5 -16t9.5 -39t-23 -39t-42 -16h-233l-43 -240q-4 -23 -23 -39t-42 -16z" />
<glyph unicode="G" horiz-adv-x="800" d="M403 1q-148 1 -234.5 103t-61.5 247q26 146 149 248t271 102q127 0 209 -76q16 -14 14.5 -36.5t-18.5 -40.5t-40 -21t-39 11q-59 53 -146 53q-102 0 -188 -71q-85 -72 -101 -169q-18 -98 42 -168q60 -71 163 -71q72 0 140 38l24 133h-139q-23 0 -36 16.5t-9 38.5 q4 23 23 39t42 16h192h1q23 0 36.5 -16t9.5 -39l-38 -216q-1 -5 -5 -15l-3 -6l-1 -1q-8 -14 -21 -23q-112 -76 -235 -76h-1z" />
<glyph unicode="H" horiz-adv-x="760" d="M521 295h-259l-42 -240q-4 -23 -23 -39t-42 -16t-36 16.5t-9 38.5l103 590q5 23 24 39t42 16t36 -16.5t9 -38.5l-42 -240h259l42 240q5 23 24 39t41 16q23 0 36.5 -16t9.5 -39l-104 -590q-4 -22 -23 -38.5t-42 -16.5t-36.5 16t-9.5 39z" />
<glyph unicode="I" horiz-adv-x="305" d="M227 54q-4 -22 -23 -38.5t-42 -16.5t-36.5 16t-9.5 39l104 590q5 23 24 39t41 16q23 0 36.5 -16t9.5 -39z" />
<glyph unicode="J" horiz-adv-x="594" d="M94 241q23 7 41.5 -3.5t21.5 -32.5q6 -42 37.5 -69t76.5 -26q57 0 104.5 40t57.5 97l70 397q4 22 23 38.5t42 16.5t36.5 -16t9.5 -39l-70 -397q-18 -103 -103.5 -175.5t-188.5 -72.5q-82 0 -138.5 48t-67.5 124q-3 22 11 42.5t37 27.5z" />
<glyph unicode="K" horiz-adv-x="715" d="M279 700q23 0 36 -16.5t9 -38.5l-51 -289l386 328q19 16 42 16t36 -16q13 -17 9.5 -39.5t-22.5 -38.5l-262 -223l190 -292q11 -18 4.5 -41t-26.5 -37q-16 -13 -37 -13q-27 0 -39 20l-184 285l-124 -106l-26 -144q-4 -23 -23 -39t-42 -16t-36 16.5t-9 38.5l104 590 q4 23 23 39t42 16z" />
<glyph unicode="L" horiz-adv-x="619" d="M155 2q-23 0 -36 16.5t-9 39.5l104 589q4 23 23 39t42 16t36 -16t9 -39l-94 -534h271q23 0 36.5 -16t9.5 -39q-5 -23 -24 -39.5t-42 -16.5h-324q0 1 -1 1q0 -1 -1 -1z" />
<glyph unicode="M" horiz-adv-x="868" d="M320 678l150 -276l248 277q22 24 50 22h1q23 0 36 -16t9 -39l-104 -589q-4 -23 -23 -39.5t-42 -16.5t-36.5 16.5t-9.5 39.5l74 420l-178 -200q-21 -23 -49 -23h-2h-1q-29 0 -41 23l-108 200l-74 -420q-5 -23 -24 -39.5t-41 -16.5q-23 0 -36.5 16.5t-9.5 39.5l104 589 q4 23 23 39t42 16h1q29 2 41 -23z" />
<glyph unicode="N" horiz-adv-x="790" d="M110 55l103 587q5 31 32 47q20 14 42 10.5t32 -22.5l246 -452l73 417q5 23 24 39t41 16q23 0 36.5 -16t9.5 -39l-104 -587q-4 -23 -23 -39t-42 -16q-25 0 -38 19q0 1 -1.5 3t-2.5 4l-244 448l-74 -419q-4 -23 -23 -39t-42 -16t-36 16t-9 39z" />
<glyph unicode="O" horiz-adv-x="850" d="M361 -1q-140 0 -218 104q-79 101 -53 246t140 246q115 104 255 104q138 0 218 -104q78 -102 52 -246q-24 -144 -139 -246q-115 -104 -255 -104zM297 519q-78 -70 -96 -170q-18 -99 36 -171q52 -67 144 -69q91 2 168 69q78 72 96 171q18 100 -36 170q-53 69 -144 69 t-168 -69z" />
<glyph unicode="P" horiz-adv-x="583" d="M155 1q-23 0 -36.5 16t-9.5 39l104 590q5 23 24 39t41 16h1h1h177q89 0 141 -62.5t36 -151.5t-89.5 -151.5t-162.5 -63.5h-124l-38 -216q-4 -22 -23 -38.5t-42 -16.5zM523 487q7 43 -17.5 73t-67.5 30h-124l-36 -207h123q43 0 78.5 30.5t43.5 73.5z" />
<glyph unicode="Q" horiz-adv-x="844" d="M786 -18q12 -20 5 -43.5t-30 -39.5q-91 -63 -182 -63h-1q-85 0 -175 60q-29 16 -58 16q-45 0 -75 -18q-34 -16 -60 3q-1 0 -2.5 0.5t-2.5 1.5q0 1 -1 1q-10 10 -13 22q-6 23 6.5 46t36.5 33l2 1q-60 33 -95 80q-85 108 -56 263q24 152 147 264q128 111 273 111 q73 0 133.5 -29.5t99.5 -81.5q84 -112 56 -264q-23 -149 -147 -263q-67 -56 -132 -82l-23 -10q61 -37 107 -37q47 0 106 39q22 15 46 12t35 -22zM202 345q-18 -107 38 -182q59 -74 154 -74q94 0 180 74q86 79 103 182q18 109 -38 183q-56 72 -155 72q-98 0 -179 -72 q-86 -77 -103 -183z" />
<glyph unicode="R" horiz-adv-x="625" d="M578 83q3 -22 -11 -42.5t-36 -27.5q-10 -4 -23 -4q-20 0 -37 11q-19 14 -26 36q-14 39 -1 120q4 25 -4 42q-6 14 -25 30q-17 12 -52 24h-118l-39 -217q-4 -23 -23 -39t-42 -16t-36 16.5t-9 38.5l104 590q4 23 23 39t42 16h1h178q89 0 140.5 -63t35.5 -151 q-16 -100 -106 -165q16 -17 27 -37q24 -47 14 -108q-7 -36 -5 -59q24 -10 28 -34zM301 589l-37 -207h124q43 0 78.5 30.5t43.5 73.5q7 43 -18 73t-68 30h-123z" />
<glyph unicode="S" horiz-adv-x="667" d="M83 98q-14 13 -12.5 33.5t17.5 36.5t37 18t35 -11q31 -31 78 -53.5t96 -21.5q72 0 127 36q47 31 55 70q3 18 -3 31q-9 18 -25 29q-39 30 -126 47h-1h-1q-71 15 -118 38q-57 30 -78 76q-16 36 -8 79q16 87 104 142q80 52 177 52q43 0 85 -15t61 -27t52 -36 q16 -11 16 -31.5t-14 -37.5t-35 -21.5t-36 7.5q-28 20 -45.5 31t-45 20.5t-55.5 9.5q-65 1 -116 -32q-42 -29 -48 -62q-3 -15 3 -27q4 -11 21 -25q35 -27 115 -43h2q76 -14 128 -41q61 -33 82 -80q17 -39 8 -84q-16 -91 -109 -151q-86 -55 -190 -55q-132 1 -233 98z" />
<glyph unicode="T" horiz-adv-x="648" d="M56 645q4 23 23 39t42 16h425q23 0 36.5 -16t9.5 -39t-23 -39t-42 -16h-158l-94 -534q-4 -23 -23 -39.5t-42 -16.5t-36 16.5t-9 39.5l94 534h-158q-23 0 -36 16t-9 39z" />
<glyph unicode="U" horiz-adv-x="814" d="M728 700q23 0 36.5 -16t9.5 -39l-63 -356q-21 -119 -120.5 -204t-219.5 -85t-189.5 85t-48.5 204l62 356q4 23 23.5 39t42.5 16t36 -16t9 -39l-63 -356q-13 -74 30.5 -126t116.5 -52q74 0 135.5 52t74.5 126l63 356q4 23 23 39t42 16z" />
<glyph unicode="V" horiz-adv-x="750" d="M645 697q20 -9 25 -30t-8 -43l-352 -589q-4 -6 -6 -8q-1 -1 -1 -2q-1 -1 -3.5 -3t-3.5 -3l-2 -2q-3 -3 -7 -5q-1 -1 -2 -1q-6 -4 -9 -5h-1l-1 -1q-6 -2 -9 -2l-2 -1q-2 0 -5.5 -0.5t-4.5 -0.5q-2 0 -5.5 0.5t-4.5 0.5t-1 0.5t-1 0.5q-2 0 -8 2l-1 1q-3 1 -9 5l-1 1l-5 5 l-2 2q-2 4 -4 7v1q-3 3 -3 8l-145 589q-5 22 7.5 43t35.5 30q22 9 42 0.5t25 -30.5l115 -468l279 468q13 22 36 30.5t42 -0.5z" />
<glyph unicode="W" horiz-adv-x="1102" d="M1015 696q20 -9 25 -30t-8 -42l-352 -589l-6 -9l-1 -1q-1 -1 -3 -3.5t-3 -3.5h-1l-2 -1q-4 -4 -7 -6q-1 0 -1 -1l-5 -2.5l-5 -2.5h-1h-1q-6 -2 -8 -3h-3q-3 -1 -10 -1q-6 0 -9 1h-3q-3 1 -7 3h-2q-1 1 -4 2.5t-4 2.5l-1 1l-6 6l-1 1q-1 1 -4 7l-1 1l-3 9l-77 313 l-187 -313l-6 -9h-1l-1 -1q-1 -1 -3 -3.5t-3 -3.5h-1l-1 -1q-1 -1 -3.5 -3t-3.5 -3q-1 0 -2 -1t-4 -2.5l-5 -2.5h-1h-2q-1 -1 -4 -2t-4 -1h-3q-3 -1 -9 -1h-1q-6 0 -9 1h-3q-4 2 -7 3h-1h-1q-1 1 -4 2.5t-4 2.5l-1 1q-4 4 -5 6q-1 0 -1 0.5t-1 0.5q-1 1 -2 3.5t-2 3.5v1 q-2 3 -4 9l-144 589q-5 21 7 42t35 30t43 0.5t25 -29.5l114 -468l186 310q20 34 58 34q39 0 47 -34l76 -310l280 468q13 21 35 29.5t42 -0.5z" />
<glyph unicode="X" horiz-adv-x="722" d="M710 691q16 -14 16 -36.5t-17 -41.5l-238 -262l145 -262q10 -18 2.5 -40.5t-27.5 -36.5q-19 -11 -35 -11q-27 0 -41 23l-129 234l-212 -234q-20 -23 -49 -23q-17 0 -30 11q-16 14 -16 36.5t17 40.5l238 262l-145 262q-11 19 -3.5 42t28.5 36t43 9.5t32 -21.5l130 -234 l212 234q17 18 40 21.5t39 -9.5z" />
<glyph unicode="Y" horiz-adv-x="604" d="M592 611l-257 -283l-48 -274q-4 -22 -23 -38.5t-42 -16.5t-36.5 16t-9.5 39l49 274l-157 283q-10 19 -2.5 41t27.5 36q21 14 43.5 10.5t32.5 -22.5l131 -236l214 236q16 19 39.5 22.5t39.5 -10.5t16 -36t-17 -41z" />
<glyph unicode="Z" horiz-adv-x="667" d="M718 647q0 -2 -1 -3v-1q0 -3 -2 -7q0 -3 -1 -4q-2 -4 -3 -5q0 -2 -2 -6q-2 -2 -3 -4q-2 -1 -4 -5l-1 -1l-455 -501h322q23 0 36 -16.5t9 -39.5t-23 -39t-42 -16h-430q-7 0 -10 1q-2 0 -3 1q-1 0 -7 2q-1 1 -2 1l-6 3l-2 2q-1 0 -1 1q-1 0 -1 1l-2 1q-1 2 -3 4 q-1 1 -2 2.5t-1 2.5q-2 2 -2 4q-2 2 -2 5l-1 2l-1 2v6v2l-1 2q0 2 0.5 4t0.5 3v3v1q2 6 2 7q1 2 1 4l3 6q0 1 1 2.5t2 2.5l2 2t1 2q1 2 4 5v1l455 501h-321q-23 0 -36.5 16.5t-9.5 39.5q4 22 23 38.5t42 16.5h431h1q4 0 6 -1h4q1 0 3 -1t3 -1t2 -1t2 -1q2 0 4 -2q1 0 2.5 -1 t2.5 -2l1 -1l2 -2l4 -4l2 -4q1 -1 2 -2.5t1 -2.5t1 -2t1 -2v-3l1 -2q1 -1 1 -3v-2v-6v-6z" />
<glyph unicode="[" horiz-adv-x="430" d="M103 -65l126 710q4 25 24 42.5t45 17.5h206q19 0 31 -14t9 -34q-4 -19 -20.5 -33t-36.5 -14h-149l-112 -640h149q20 0 31.5 -14t7.5 -33q-3 -19 -19.5 -33.5t-36.5 -14.5h-206q-25 0 -39 17.5t-10 42.5z" />
<glyph unicode="\" d="M337 4q-8 -4 -20 -4q-37 0 -51 33l-245 584q-9 20 -0.5 41.5t28.5 29.5q22 9 43 0.5t30 -29.5l245 -583q9 -21 0.5 -42.5t-30.5 -29.5z" />
<glyph unicode="]" horiz-adv-x="430" d="M500 645l-126 -710q-4 -25 -24 -42.5t-45 -17.5h-206q-19 0 -31 14t-9 34q4 19 20.5 33t36.5 14h149l112 640h-149q-20 0 -31.5 14t-7.5 33q3 19 19.5 33.5t36.5 14.5h206q25 0 39 -17.5t10 -42.5z" />
<glyph unicode="^" d="M279 625l-91 -93q-26 -26 -42.5 -35t-38.5 -9q-12 0 -19 5.5t-5 14.5q3 14 18 30l122 130q31 36 68 36h9q35 0 55 -36l68 -130q8 -17 5 -30q-5 -20 -32 -20q-23 0 -36.5 9t-27.5 35z" />
<glyph unicode="_" horiz-adv-x="600" d="M18 -160q-19 0 -30 13.5t-6 33.5q4 19 20.5 33t36.5 14h604q19 0 30 -13.5t7 -33.5q-4 -19 -21 -33t-37 -14h-604z" />
<glyph unicode="`" d="M318 590q-42 0 -70 27l-68 64q-17 15 -17 30q0 14 23.5 26.5t48.5 12.5q30 0 48 -29l57 -88q9 -13 9 -22q0 -21 -31 -21z" />
<glyph unicode="a" horiz-adv-x="619" d="M246 1q-100 0 -156 74q-56 76 -37 175q16 101 98 176q83 73 183 73q72 0 125 -42q7 18 23.5 30t35.5 12q23 0 35 -15.5t8 -37.5l-68 -391q-5 -23 -22.5 -38.5t-39.5 -15.5q-20 0 -32 12t-13 31q-69 -43 -140 -43zM216 353q-48 -43 -58 -103t22 -102q30 -41 85 -41 q54 0 98 41q47 41 58 102q12 59 -22 103q-31 41 -84 41q-51 0 -99 -41z" />
<glyph unicode="b" horiz-adv-x="660" d="M144 -2q-23 0 -36 16t-9 39l102 592q4 23 23 39t41 16q23 0 36 -16.5t9 -38.5l-31 -186q72 41 143 41q102 0 160 -73.5t40 -177.5t-102 -177.5t-186 -73.5q-74 0 -130 43q-8 -19 -24.5 -31t-35.5 -12zM301 350q-47 -41 -58 -101t22 -101q32 -42 89 -42q53 0 101 42 q47 39 58 101q10 58 -21 101q-34 42 -90 42q-54 0 -101 -42z" />
<glyph unicode="c" horiz-adv-x="571" d="M299 0q-108 0 -171.5 74.5t-44.5 180.5t109 180.5t197 74.5q91 0 152 -55q15 -14 14 -36.5t-18 -40.5q-16 -17 -39 -20t-39 11q-35 32 -89 32q-63 0 -115 -43t-63 -103t26 -103.5t100 -43.5q54 0 101 33q20 14 42 11t32 -21q11 -18 4 -40.5t-27 -35.5q-79 -55 -171 -55z " />
<glyph unicode="d" horiz-adv-x="660" d="M283 -1q-101 1 -159 74t-40 176t102 177t185 74q72 0 128 -43l30 189q4 22 23 38t41 16q23 0 36 -16t9 -38l-102 -592q-5 -23 -23.5 -39t-40.5 -16q-19 0 -32 12.5t-14 30.5q-71 -43 -143 -43zM250 350q-48 -42 -57 -101q-12 -57 21 -100q34 -41 88 -41q53 0 102 41 q48 43 57 100q10 60 -21 101q-33 41 -88 41q-56 0 -102 -41z" />
<glyph unicode="e" horiz-adv-x="609" d="M280 0q-102 1 -159 74t-38 176t102.5 176.5t185.5 73.5q99 0 155.5 -65.5t43.5 -166.5q0 -4 -1 -5q0 -5 -2 -9q-5 -18 -22 -29t-37 -11h-319q0 -39 22 -66q12 -18 37 -30.5t51 -14.5q71 -6 119 38q17 16 35.5 16t25 -4.5t11.5 -9.5q13 -14 11.5 -33t-15.5 -33 q-45 -42 -92 -59.5t-114 -17.5zM354 405q-58 -3 -99 -36t-56 -70h283q-2 35 -35.5 68t-92.5 38z" />
<glyph unicode="f" horiz-adv-x="362" d="M292 583q-10 -10 -18 -51l-2 -14h29q23 0 36.5 -16t9.5 -39q-5 -23 -24 -39.5t-41 -16.5h-30l-62 -352q-4 -23 -23 -39t-42 -16t-36 16t-9 39l62 352h-26q-23 0 -36.5 16.5t-9.5 39.5q5 23 24 39t41 16h26l3 14q9 58 36 98q31 48 83 61q27 9 61 9q23 0 36.5 -16.5 t9.5 -39.5q-5 -23 -24 -39t-41 -16q-20 0 -26 -3q-5 -2 -7 -3z" />
<glyph unicode="g" horiz-adv-x="660" d="M555 246l-33 -186q-17 -100 -100 -171t-184 -71q-56 0 -102 24q-18 10 -21.5 31t9.5 41t35.5 27.5t40.5 -2.5q26 -14 57 -14q48 0 90.5 31t59.5 77q-69 -41 -138 -41q-100 0 -159 76q-56 74 -38 178q18 105 101 178q84 76 185 76q75 0 128 -44q7 19 23.5 31.5t36.5 12.5 q23 0 35.5 -16t8.5 -38l-35 -199v-1zM288 101q55 0 100 42q48 40 59 103l1 1q10 61 -23 103q-32 42 -85 42q-54 0 -102 -42q-48 -43 -58 -104q-11 -59 21 -103q33 -42 87 -42z" />
<glyph unicode="h" horiz-adv-x="613" d="M469 1q-23 0 -36.5 16t-9.5 39l43 227q8 44 -18 75.5t-70 31.5t-81 -31.5t-45 -75.5l-43 -227q-5 -23 -24 -39t-41 -16q-23 0 -36.5 16t-9.5 39l44 227l60 363q4 23 23 39t42 16t36.5 -16t9.5 -39l-27 -173q53 28 112 28q90 0 142.5 -63.5t36.5 -154.5l-43 -227 q-5 -23 -24 -39t-41 -16z" />
<glyph unicode="i" horiz-adv-x="281" d="M99 54l73 391q4 23 23 39t42 16t36 -16.5t9 -38.5l-72 -391q-4 -23 -23 -39t-42 -16t-36.5 16t-9.5 39zM310 623q-4 -23 -23 -39.5t-42 -16.5t-36 16.5t-9 39.5l3 21q5 23 24 39t41 16q23 0 36.5 -16t9.5 -39z" />
<glyph unicode="j" horiz-adv-x="249" d="M311 644l-4 -21q-4 -24 -23.5 -41t-43.5 -17q-23 0 -36.5 17t-9.5 41l4 21q4 23 23 39.5t43 16.5q23 0 37 -16.5t10 -39.5zM230 500q23 0 36.5 -16t9.5 -40l-96 -529q-8 -47 -47.5 -80t-85.5 -33q-23 0 -36.5 16.5t-9.5 40.5q4 23 23.5 39.5t42.5 16.5l96 529 q4 24 23.5 40t43.5 16z" />
<glyph unicode="k" horiz-adv-x="560" d="M144 0q-23 0 -36 16.5t-9 38.5l104 590q4 23 23 39t42 16t36 -16.5t9 -38.5l-61 -347l242 206q20 16 42.5 16t35.5 -16q13 -17 9.5 -39.5t-22.5 -38.5l-176 -150l120 -186q11 -17 5 -40t-26 -37q-17 -13 -38 -13q-25 0 -39 20l-115 178l-65 -56l-16 -87q-4 -23 -23 -39 t-42 -16z" />
<glyph unicode="l" horiz-adv-x="249" d="M209 644q4 23 23.5 39t42.5 16t36 -16t9 -39l-104 -589q-4 -23 -23 -39.5t-42 -16.5t-36.5 16.5t-9.5 39.5z" />
<glyph unicode="m" horiz-adv-x="951" d="M557 292l-41 -236q-5 -23 -23 -38.5t-40 -15.5t-34.5 15.5t-9.5 38.5l42 236v2q7 42 -18 71.5t-67 29.5q-41 0 -77 -30t-43 -73l-42 -236q-4 -22 -22 -38t-40 -16t-34.5 16t-8.5 38l41 236l27 155q5 23 23 38t40 15q33 0 43 -30q54 30 112 30q94 0 144 -69q74 69 168 69 q86 0 136 -61t35 -147l-42 -236q-3 -22 -21.5 -38t-40.5 -16t-34.5 16t-8.5 38l41 236q8 43 -16.5 73t-67.5 30q-42 0 -77 -29.5t-43 -71.5q0 -1 -1 -2z" />
<glyph unicode="n" horiz-adv-x="613" d="M410 55l42 236q7 43 -17.5 73t-67.5 30t-78 -30t-42 -73l-43 -236q-3 -22 -21.5 -38t-40.5 -16t-35 16t-9 38l42 236l27 156q5 22 23 37.5t40 15.5q34 0 42 -31q54 31 113 31q87 0 137.5 -61t34.5 -148l-42 -236q-3 -22 -21 -38t-40 -16t-35 15.5t-9 38.5z" />
<glyph unicode="o" horiz-adv-x="625" d="M365 500q98 0 158 -75q55 -74 37 -176q-18 -104 -100 -176q-82 -75 -183 -75q-99 0 -158 75q-55 73 -37 176q18 101 99 176q85 75 184 75zM454 249q11 62 -23 102q-30 42 -84 42t-101 -42q-46 -41 -58 -102q-11 -62 22 -103q32 -42 85 -42t101 42q46 41 58 103z" />
<glyph unicode="p" horiz-adv-x="660" d="M454 500q102 0 160 -74t40 -177t-102.5 -177t-185.5 -75q-76 2 -128 43l-30 -175q-5 -23 -24 -39t-41 -16t-35.5 16t-9.5 39l103 580q4 23 22.5 39t41.5 16q19 0 31.5 -12t13.5 -30q71 42 144 42zM487 149q49 39 58 100q11 61 -22 101q-34 41 -87 41q-55 0 -104 -41 q-47 -44 -56 -101q-13 -58 21 -100t88 -42t102 42z" />
<glyph unicode="q" horiz-adv-x="660" d="M570 250v-1l-68 -381q-4 -23 -22.5 -39t-41.5 -16q-22 0 -35 16.5t-9 38.5l31 173q-67 -40 -142 -42q-101 1 -159 74t-40 176q18 104 101.5 177t185.5 73q75 0 128 -42q7 19 24 30.5t37 11.5q22 0 35 -15.5t9 -38.5zM403 149q47 41 58 100v1q11 59 -22 100q-32 41 -88 41 q-54 0 -101 -41t-58 -101q-10 -58 22 -100q34 -41 88 -41q53 0 101 41z" />
<glyph unicode="r" horiz-adv-x="439" d="M230 500q22 0 35 -15.5t9 -37.5l-2 -7q12 10 28 19q63 41 132 41q22 0 35 -15.5t9 -37.5q-5 -22 -23 -38t-39 -16q-31 0 -64 -18q-24 -13 -55 -48q-37 -42 -57 -85l-33 -189q-4 -22 -22.5 -37.5t-40.5 -15.5t-35 15.5t-9 37.5l70 394q3 22 21.5 37.5t40.5 15.5z" />
<glyph unicode="s" horiz-adv-x="492" d="M71 70q-15 14 -13.5 35t18.5 38q17 18 40 20t38 -13q16 -17 44 -30t55 -12q41 0 72 18q22 15 25 29q0 7 -1 11q-4 6 -11 13q-26 17 -77 27h-1q-52 10 -83 26q-42 26 -56 59q-11 29 -7 62q13 64 78 109q62 38 129 38q69 0 140 -56q17 -11 17.5 -33t-15.5 -40 q-14 -18 -36.5 -22.5t-38.5 7.5q-51 38 -85 38q-39 0 -63 -19q-17 -10 -20 -22v-8q2 -5 10 -10q17 -15 67 -23l1 -1h1q54 -10 88 -29q44 -23 60 -60q13 -29 7 -67q-13 -68 -82 -114q-64 -40 -137 -40q-94 1 -164 69z" />
<glyph unicode="t" horiz-adv-x="400" d="M229 701q23 0 36.5 -16t9.5 -39l-22 -146h26q23 0 36 -16.5t9 -39.5t-23 -39t-42 -16h-26l-52 -277q23 0 36.5 -16.5t9.5 -39.5q-5 -23 -24 -39t-41 -16q-46 0 -73 32.5t-19 78.5l53 277h-30q-23 0 -36 16.5t-9 38.5q4 23 23 39.5t42 16.5h29l22 146q5 23 24 39t41 16z " />
<glyph unicode="u" horiz-adv-x="613" d="M519 500q23 0 35 -15.5t8 -37.5l-41 -237q-15 -86 -87 -147.5t-158 -61.5q-87 0 -137.5 61.5t-34.5 147.5l41 237q4 22 22 37.5t40 15.5t35 -15t9 -38l-42 -237q-7 -42 18 -72t67 -30q43 0 78 30t43 72l42 237q4 22 22 37.5t40 15.5z" />
<glyph unicode="v" horiz-adv-x="582" d="M469 490q18 -9 22.5 -29t-7.5 -40l-232 -390q-1 -2 -5 -8q-1 0 -1 -0.5t-1 -0.5q-1 -1 -2.5 -3t-2.5 -3h-1l-1 -1q-3 -3 -7 -5q-1 -1 -2 -1q-6 -4 -9 -5h-1l-1 -1q-6 -2 -8 -2l-2 -1q-2 0 -5 -0.5t-4 -0.5h-1q-2 0 -5 0.5t-4 0.5l-2 1q-2 0 -8 2l-1 1q-3 1 -7 5 q-1 0 -1 1q-2 1 -6 5l-1 1q-2 2 -4 6l-1 1q-2 6 -3 8l-95 390q-5 20 6.5 40t33.5 29q22 8 41 0t23 -28l68 -274l163 274q12 20 33.5 28t40.5 0z" />
<glyph unicode="w" horiz-adv-x="861" d="M711 488q19 -7 23.5 -27.5t-7.5 -40.5l-231 -386q-4 -6 -6 -8v-2l-6 -6l-2 -2q-4 -2 -7 -4q-1 0 -1 -0.5t-1 -0.5q-1 -1 -4 -2.5l-5 -2.5q-1 0 -2 -1q-3 0 -7 -2h-3q-3 -1 -10 -1q-5 0 -8 1h-3q-4 2 -7 2l-1 1h-1q-6 4 -7 5q-1 0 -1 0.5t-1 0.5q-1 3 -4 4l-2 2l-3 6 q-1 1 -1 2q-1 2 -3 8l-42 171l-103 -171q0 -5 -5 -8q0 -1 -1 -2l-6 -6l-2 -2q-6 -3 -7 -4t-2 -1q-2 -1 -4 -2.5t-4 -2.5h-1q-1 0 -1 -1q-4 0 -8 -2h-3q-3 -1 -9 -1t-9 1h-3q-4 2 -6 2q-1 1 -2 1h-1q-1 1 -3 2.5t-3 2.5q-1 0 -1 0.5t-1 0.5q-1 2 -5 4v1l-1 1q-2 2 -4 6l-1 1 v1q-1 2 -3 8l-94 386q-5 20 6.5 40t32.5 28q22 9 40.5 1t23.5 -28l67 -272l100 168q21 34 55 32q36 2 44 -32l41 -168l163 272q12 20 33.5 28t39.5 -1z" />
<glyph unicode="x" horiz-adv-x="570" d="M515 483q16 -13 15.5 -34.5t-16.5 -39.5l-148 -162l90 -163q10 -17 3 -38.5t-27 -34.5q-16 -10 -33 -10q-25 0 -39 21l-75 136l-122 -136q-21 -21 -47 -21q-18 0 -29 10q-15 13 -15 34.5t16 38.5l148 163l-90 162q-10 18 -3 39.5t27 34.5q19 13 40.5 9.5t31.5 -21.5 l75 -135l124 135q15 18 37 21.5t37 -9.5z" />
<glyph unicode="y" horiz-adv-x="588" d="M537 447l-14 -77l-54 -308q-17 -100 -100 -170.5t-183 -70.5q-57 0 -102 25q-18 10 -21.5 31t9.5 41q14 20 36.5 27t40.5 -3q26 -13 56 -13q43 0 82.5 25t59.5 66q-48 -24 -101 -24q-87 0 -138 62t-36 149l42 240q4 22 22.5 37.5t40.5 15.5q23 0 36 -15.5t9 -37.5 l-43 -240q-8 -43 17.5 -73.5t68.5 -30.5t79 30.5t44 73.5l41 240q3 16 14 28q22 25 49 25q19 0 29 -10q21 -14 16 -43z" />
<glyph unicode="z" horiz-adv-x="554" d="M412 106q22 0 35 -16t9 -38t-22 -37.5t-40 -15.5h-288q-7 0 -10 1q-2 0 -3 1q-2 0 -6 2q-1 1 -2 1t-2.5 1t-2.5 2l-2 2h-1l-3 3q-2 2 -3 4q-1 0 -2 2l-1 2q-2 2 -2 4q-2 2 -2 4q-1 1 -1 2q-1 2 -1 3v4q0 1 -0.5 3t-0.5 3q1 1 1 3v2v4v1q0 1 1 3t1 3t1 2.5t1 2.5t2 5 q0 1 1 2.5t2 2.5q0 3 3 3q2 4 4 5v1l280 309h-182q-22 0 -35 16t-9 38t22 37.5t40 15.5h288h1q4 0 6 -1h5l2 -1l2 -1q2 0 4 -2q2 0 4 -2q1 -1 2 -1q2 -1 3 -1l3 -3q2 -2 3 -4l2 -2t1 -2q2 -2 2 -4q2 -4 2 -5q1 -1 1 -4q1 -2 1 -6v-2q0 -2 0.5 -3t0 -3t-0.5 -3v-3v-1 q-2 -4 -2 -6q-1 -1 -1 -4q-2 -4 -3 -5q-2 -4 -3 -5t-2 -2.5t-1 -2.5l-1 -2q-1 -2 -2 -2l-1 -1l-280 -309h182z" />
<glyph unicode="{" horiz-adv-x="480" d="M325 -148q-107 24 -141.5 70t-20.5 124q1 9 7 37.5t7 34.5q10 55 -7.5 81t-67.5 27q-23 1 -34.5 14.5t-7.5 33.5t19.5 33.5t39.5 14.5q51 2 77.5 27.5t36.5 81.5q2 9 10 72q14 77 64.5 123t165.5 70q24 5 38 -7t10 -34q-5 -32 -35 -41q-73 -21 -98.5 -48t-35.5 -81 q-1 -6 -3 -22t-4 -29.5t-4 -22.5q-10 -56 -41.5 -88.5t-86.5 -48.5q50 -17 70 -49t10 -88q-1 -6 -7 -34t-8 -40q-10 -54 6 -81t82 -48q26 -10 21 -41q-4 -22 -22 -34t-40 -7z" />
<glyph unicode="|" horiz-adv-x="286" d="M126 -85l149 840q4 20 21 34t37 14t31.5 -14t7.5 -34l-150 -840q-4 -20 -21.5 -34t-37.5 -14q-19 0 -30 14t-7 34z" />
<glyph unicode="}" horiz-adv-x="480" d="M254 696q107 -24 141.5 -70t20.5 -124q-1 -9 -7 -37.5t-7 -34.5q-10 -55 7.5 -81t67.5 -27q23 -1 34.5 -14.5t7.5 -33.5t-19.5 -33.5t-39.5 -14.5q-51 -2 -77.5 -27.5t-36.5 -81.5q-2 -9 -10 -72q-14 -77 -64.5 -123t-165.5 -70q-24 -5 -38 7t-10 34q5 32 35 41 q73 21 98.5 48t35.5 81q1 6 3 22t4 29.5t4 22.5q10 56 41.5 88.5t86.5 48.5q-50 17 -70 49t-10 88q1 6 7 34t8 40q10 54 -6 81t-82 48q-26 10 -21 41q4 22 22 34t40 7z" />
<glyph unicode="~" horiz-adv-x="460" d="M154 247q-11 -20 -32 -20q-15 0 -26 10t-11 24t4 22q17 46 40 68.5t62 22.5q30 0 79 -19.5t64 -19.5q30 0 47 31q11 21 32 21q15 0 26 -10.5t11 -23.5q0 -14 -4 -23q-17 -46 -40 -68.5t-62 -22.5q-30 0 -79 20t-64 20q-30 0 -47 -32z" />
<glyph unicode="&#xa1;" horiz-adv-x="252" d="M145 1q-23 0 -36.5 16.5t-9.5 39.5l65 370q5 23 24 39.5t42 16.5t36 -16.5t9 -39.5l-65 -370q-4 -23 -23 -39.5t-42 -16.5zM245 569q-23 0 -36.5 16t-9.5 39l4 22q4 23 23 39t42 16t36.5 -16t9.5 -39l-4 -22q-4 -22 -23 -38.5t-42 -16.5z" />
<glyph unicode="&#xa2;" horiz-adv-x="581" d="M410 139q20 14 41.5 11t34.5 -22q9 -16 2 -38t-27 -37q-83 -54 -171 -54q-44 0 -83 14l-32 -54q-20 -33 -57 -33q-12 0 -19 4q-20 8 -25.5 29.5t7.5 42.5l41 69q-66 76 -47 182t108.5 180.5t196.5 75.5h4l45 76q13 21 35.5 29.5t42.5 -0.5q19 -8 23.5 -29.5t-7.5 -41.5 l-36 -59q27 -14 45 -31q15 -14 14 -36t-16 -39q-19 -19 -41.5 -21.5t-37.5 11.5q-7 6 -23 16l-161 -271q18 -6 42 -6q52 0 101 32zM183 253q-7 -36 6 -70l125 210q-49 -14 -86 -53t-45 -87z" />
<glyph unicode="&#xa3;" horiz-adv-x="644" d="M70 43q5 34 41 44l53 15l31 176h-32q-22 0 -34 15t-8 37q3 21 21 36.5t40 15.5h32l16 92q20 112 93 174q71 62 179 62q120 0 180 -81q16 -19 12 -44t-25 -42.5t-47 -17.5t-41 19q-39 52 -98 52q-44 0 -78 -28q-39 -34 -51 -97l-15 -89h202q21 0 33.5 -15.5t9.5 -36.5 q-4 -22 -22.5 -37t-39.5 -15h-202l-30 -171h276q22 0 35.5 -15.5t9.5 -38.5q-4 -22 -22.5 -37.5t-41.5 -15.5h-438q-21 0 -31.5 12.5t-7.5 30.5z" />
<glyph unicode="&#xa5;" horiz-adv-x="686" d="M394 266l-13 -73h154q18 0 28.5 -13t7.5 -32q-3 -18 -18.5 -31t-33.5 -13h-154l-8 -48q-4 -25 -24.5 -42t-45.5 -17t-39 17t-9 42l8 48h-154q-18 0 -28.5 13t-7.5 31q3 19 18.5 32t33.5 13h154l13 73h-154q-18 0 -29 13t-7 31q3 19 18 32t33 13h119l-139 252 q-11 19 -8 42q5 24 25.5 41t46.5 17q34 0 52 -34l129 -261l222 260q31 35 63 35q25 0 39 -15.5t9 -41.5q-4 -24 -22 -43l-231 -252h121q18 0 29 -13t8 -32q-4 -18 -19 -31t-33 -13h-154z" />
<glyph unicode="&#xa8;" d="M411 720q27 0 42 -17.5t10 -44.5l-1 -7q-6 -27 -28.5 -44t-49.5 -17q-28 0 -43.5 17t-9.5 44l1 7q5 27 28 44.5t51 17.5zM212 720q27 0 42 -17.5t10 -44.5l-1 -7q-6 -27 -28.5 -44t-49.5 -17q-28 0 -43.5 17t-9.5 44l1 7q5 27 28 44.5t51 17.5z" />
<glyph unicode="&#xa9;" horiz-adv-x="830" d="M414 -12q-151 0 -256 105.5t-105 254.5v2q0 149 106 255.5t257 106.5t256 -105.5t105 -254.5v-2q0 -149 -106 -255.5t-257 -106.5zM414 24q138 0 231.5 95.5t93.5 230.5v2q0 135 -93 229.5t-230 94.5q-138 0 -231.5 -95.5t-93.5 -230.5v-2q0 -135 93 -229.5t230 -94.5z M419 159q-82 0 -137 56t-55 138v2q0 82 55 139t139 57q77 0 130 -43q16 -11 16 -30q0 -16 -10.5 -26.5t-25.5 -10.5q-11 0 -24 10q-41 32 -86 32q-50 0 -84 -37t-34 -90v-2q0 -52 34 -89.5t84 -37.5t92 36q11 9 22 9q14 0 24.5 -10.5t10.5 -24.5q0 -16 -11 -25 q-61 -53 -140 -53z" />
<glyph unicode="&#xab;" horiz-adv-x="515" d="M455 42q-27 0 -39 21l-99 166q-12 20 -8 35q3 17 21 35l155 163q22 24 49 24q21 0 32.5 -15t7.5 -35q-3 -19 -20 -34l-129 -137l81 -140q11 -15 8 -33q-5 -21 -21.5 -35.5t-37.5 -14.5zM203 42q-27 0 -39 21l-99 166q-11 19 -7 35q3 18 20 35l155 163q24 24 50 24 q20 0 31.5 -15t7.5 -35q-3 -18 -19 -34l-130 -137l82 -140q10 -14 7 -33q-4 -21 -21 -35.5t-38 -14.5z" />
<glyph unicode="&#xad;" horiz-adv-x="408" d="M288 308h-186q-15 0 -25.5 10.5t-10.5 25.5t10.5 25.5t25.5 10.5h186q15 0 25 -10.5t10 -25.5t-10 -25.5t-25 -10.5z" />
<glyph unicode="&#xae;" horiz-adv-x="416" d="M208 360q-73 0 -123.5 51t-50.5 123v1q0 72 51 123.5t123 51.5q73 0 123.5 -51t50.5 -123v-1q0 -72 -51 -123.5t-123 -51.5zM208 379q65 0 109.5 46t44.5 110v1q0 64 -44.5 109.5t-109.5 45.5t-109.5 -46t-44.5 -110v-1q0 -64 44.5 -109.5t109.5 -45.5zM275 463 q8 -2 11 -10q5 -15 -11 -20l-2 -1h-4q-6 0 -12 3q-5 3 -9 10q-6 13 -6 36q-2 9 -4 12q-3 4 -9 9q-5 3 -16 7h-34v-64q0 -7 -5 -11.5t-12 -4.5q-16 0 -16 16v173q0 16 16 16h53q26 0 44 -18.5t18 -44.5q0 -28 -23 -48q8 -6 11 -11q9 -14 9 -31q0 -5 0.5 -11t0.5 -7zM215 541 q12 0 21 9t9 21q0 13 -9 21.5t-21 8.5h-36v-60h36z" />
<glyph unicode="&#xb0;" horiz-adv-x="450" d="M241 381q-66 0 -116.5 48.5t-50.5 113.5v2q0 65 50.5 113t116.5 48t116 -48t50 -113v-2q0 -65 -50 -113.5t-116 -48.5zM241 447q40 0 67 28.5t27 67.5v2q0 39 -27 67t-67 28q-41 0 -68 -28t-27 -67v-2q0 -39 27.5 -67.5t67.5 -28.5z" />
<glyph unicode="&#xb4;" d="M231 590q-30 0 -30 21q0 10 8 22l57 88q18 29 48 29q25 0 48.5 -12.5t23.5 -26.5q0 -15 -17 -30l-67 -64q-29 -27 -71 -27z" />
<glyph unicode="&#xb8;" d="M340 10l-61 -141q-12 -29 -39 -29q-20 0 -45 14.5t-25 29.5q0 12 8 23l71 103h91z" />
<glyph unicode="&#xbb;" horiz-adv-x="515" d="M191 486q27 0 39 -21l99 -166q12 -20 8 -35q-3 -17 -21 -35l-155 -163q-22 -24 -49 -24q-21 0 -32.5 15t-7.5 35q3 19 20 34l129 137l-81 140q-11 15 -8 33q5 21 21.5 35.5t37.5 14.5zM443 486q27 0 39 -21l99 -166q11 -19 7 -35q-3 -18 -20 -35l-155 -163 q-24 -24 -50 -24q-20 0 -31.5 15t-7.5 35q3 18 19 34l130 137l-82 140q-10 14 -7 33q4 21 21 35.5t38 14.5z" />
<glyph unicode="&#xbf;" horiz-adv-x="534" d="M357 576q-21 0 -33.5 15t-8.5 37l3 19q4 22 21.5 37t39.5 15q21 0 33.5 -15t8.5 -37l-3 -19q-4 -22 -21.5 -37t-39.5 -15zM256 -1q-92 0 -145 65t-37 156q13 78 71.5 138t135.5 77l13 69q4 22 21.5 36.5t38.5 14.5t33.5 -14.5t8.5 -36.5l-19 -110l-1 -1v-1v-2 q-4 -21 -21.5 -36t-38.5 -15q-49 0 -90 -34.5t-50 -84.5q-8 -49 20.5 -83.5t77.5 -34.5q69 0 113 59q14 18 35 23.5t38 -5.5q17 -10 19 -30.5t-12 -39.5q-38 -50 -94.5 -80t-116.5 -30z" />
<glyph unicode="&#xc0;" horiz-adv-x="790" d="M240 165l-72 -129q-20 -36 -58 -36q-10 0 -19 3q-20 8 -25.5 29t6.5 43l325 589q19 36 59 36q39 0 47 -36l117 -589q4 -22 -9 -43t-36 -29q-11 -3 -20 -3q-17 0 -29.5 10t-15.5 26l-26 129h-244zM301 275h161l-43 215zM551 790q-42 0 -70 27l-68 64q-17 15 -17 30 q0 14 23.5 26.5t48.5 12.5q30 0 48 -29l57 -88q9 -13 9 -22q0 -21 -31 -21z" />
<glyph unicode="&#xc1;" horiz-adv-x="646" d="M239 165l-72 -129q-20 -36 -58 -36q-10 0 -19 3q-20 8 -25.5 29t6.5 43l325 589q19 36 59 36q39 0 47 -36l117 -589q5 -22 -8.5 -43t-36.5 -29q-10 -3 -20 -3q-17 0 -29.5 10t-15.5 26l-26 129h-244zM300 275h161l-43 215zM389 790q-30 0 -30 21q0 10 8 22l57 88 q18 29 48 29q25 0 48.5 -12.5t23.5 -26.5q0 -15 -17 -30l-67 -64q-29 -27 -71 -27z" />
<glyph unicode="&#xc2;" horiz-adv-x="790" d="M240 165l-72 -129q-20 -36 -58 -36q-10 0 -19 3q-20 8 -25.5 29t6.5 43l325 589q19 36 59 36q39 0 47 -36l117 -589q4 -22 -9 -43t-36 -29q-11 -3 -20 -3q-17 0 -29.5 10t-15.5 26l-26 129h-244zM301 275h161l-43 215zM510 862l-66 -45q-39 -27 -82 -27q-12 0 -18 5.5 t-3 14.5q2 7 19 24l91 83q32 29 67 29h36q34 0 49 -29l41 -83q8 -15 5 -24q-6 -20 -35 -20q-40 0 -66 27z" />
<glyph unicode="&#xc3;" horiz-adv-x="790" d="M240 165l-72 -129q-20 -36 -58 -36q-10 0 -19 3q-20 8 -25.5 29t6.5 43l325 589q19 36 59 36q39 0 47 -36l117 -589q4 -22 -9 -43t-36 -29q-11 -3 -20 -3q-17 0 -29.5 10t-15.5 26l-26 129h-244zM301 275h161l-43 215zM399 803q-13 -20 -33 -20q-15 0 -26 10t-11 23 q0 9 4 23q17 46 40.5 68.5t61.5 22.5q30 0 79 -20t65 -20q29 0 46 32q13 20 33 20q15 0 26 -10t11 -23q0 -9 -4 -23q-17 -46 -40.5 -68.5t-61.5 -22.5q-30 0 -79 20t-65 20q-29 0 -46 -32z" />
<glyph unicode="&#xc4;" horiz-adv-x="790" d="M240 165l-72 -129q-20 -36 -58 -36q-10 0 -19 3q-20 8 -25.5 29t6.5 43l325 589q19 36 59 36q39 0 47 -36l117 -589q4 -22 -9 -43t-36 -29q-11 -3 -20 -3q-17 0 -29.5 10t-15.5 26l-26 129h-244zM301 275h161l-43 215zM607 920q27 0 42 -17.5t10 -44.5l-1 -7 q-6 -27 -28.5 -44t-49.5 -17q-28 0 -43.5 17t-9.5 44l1 7q5 27 28 44.5t51 17.5zM408 920q27 0 42 -17.5t10 -44.5l-1 -7q-6 -27 -28.5 -44t-49.5 -17q-28 0 -43.5 17t-9.5 44l1 7q5 27 28 44.5t51 17.5z" />
<glyph unicode="&#xc5;" horiz-adv-x="790" d="M319 275h162l-43 215zM529 35l-27 130h-243l-71 -130q-21 -35 -59 -35q-9 0 -18 3q-20 8 -25.5 29t5.5 43l304 553q-25 17 -37 45t-7 59l1 2q9 50 54 86.5t96 36.5t83 -36.5t23 -86.5l-1 -2q-11 -65 -79 -103l111 -554q4 -22 -9.5 -43t-36.5 -29q-7 -3 -20 -3 q-17 0 -29 9.5t-15 25.5zM471 685q20 0 36.5 13.5t19.5 33.5l1 2q3 20 -8.5 33.5t-31.5 13.5t-36.5 -13.5t-19.5 -33.5l-1 -2q-3 -20 8.5 -33.5t31.5 -13.5z" />
<glyph unicode="&#xc6;" horiz-adv-x="1045" d="M40 57q3 21 16 35l439 577q30 43 79 43h481q23 0 36 -16.5t9 -38.5q-4 -23 -22.5 -39t-41.5 -16h-324l-32 -182h279q22 0 35.5 -16.5t9.5 -39.5q-4 -22 -23 -38t-42 -16h-279l-33 -188h329q23 0 36 -16.5t9 -38.5q-4 -23 -22.5 -39t-41.5 -16h-390q-26 0 -41 18t-10 44 l19 107h-264l-106 -141q-26 -34 -60 -34q-23 0 -36 14.5t-9 36.5zM333 290h201l55 315h-20z" />
<glyph unicode="&#xc7;" horiz-adv-x="738" d="M404 0q-148 0 -235 102t-62 248q26 145 149 247.5t271 102.5q127 0 209 -76q16 -14 14.5 -37t-18.5 -41t-40 -20.5t-39 11.5q-60 52 -146 52q-102 0 -187 -70q-86 -71 -102 -169q-18 -98 42 -169q60 -70 163 -70q88 0 164 52q20 14 42.5 11t33.5 -21t4 -41t-28 -36 q-109 -76 -235 -76zM463 10l-61 -141q-12 -29 -39 -29q-20 0 -45 14.5t-25 29.5q0 12 8 23l71 103h91z" />
<glyph unicode="&#xc8;" horiz-adv-x="670" d="M155 -2q-23 0 -36.5 16t-9.5 39l104 590q4 23 23 39t42 16h1h1h324q23 0 36.5 -16t9.5 -39q-5 -23 -24 -39.5t-41 -16.5h-271l-33 -184h234q23 0 36 -16t9 -39t-23 -39t-42 -16h-233l-33 -184h271q23 0 36.5 -16.5t9.5 -39.5q-5 -23 -24 -39t-41 -16h-325h-1zM495 790 q-42 0 -70 27l-68 64q-17 15 -17 30q0 14 23.5 26.5t48.5 12.5q30 0 48 -29l57 -88q9 -13 9 -22q0 -21 -31 -21z" />
<glyph unicode="&#xc9;" horiz-adv-x="670" d="M155 -2q-23 0 -36.5 16t-9.5 39l104 590q4 23 23 39t42 16h1h1h324q23 0 36.5 -16t9.5 -39q-5 -23 -24 -39.5t-41 -16.5h-271l-33 -184h234q23 0 36 -16t9 -39t-23 -39t-42 -16h-233l-33 -184h271q23 0 36.5 -16.5t9.5 -39.5q-5 -23 -24 -39t-41 -16h-325h-1zM410 790 q-30 0 -30 21q0 10 8 22l57 88q18 29 48 29q25 0 48.5 -12.5t23.5 -26.5q0 -15 -17 -30l-67 -64q-29 -27 -71 -27z" />
<glyph unicode="&#xca;" horiz-adv-x="670" d="M155 -2q-23 0 -36.5 16t-9.5 39l104 590q4 23 23 39t42 16h1h1h324q23 0 36.5 -16t9.5 -39q-5 -23 -24 -39.5t-41 -16.5h-271l-33 -184h234q23 0 36 -16t9 -39t-23 -39t-42 -16h-233l-33 -184h271q23 0 36.5 -16.5t9.5 -39.5q-5 -23 -24 -39t-41 -16h-325h-1zM505 862 l-66 -45q-39 -27 -82 -27q-12 0 -18 5.5t-3 14.5q2 7 19 24l91 83q32 29 67 29h36q35 0 49 -29l41 -83q8 -15 5 -24q-6 -20 -35 -20q-40 0 -66 27z" />
<glyph unicode="&#xcb;" horiz-adv-x="670" d="M155 -2q-23 0 -36.5 16t-9.5 39l104 590q4 23 23 39t42 16h1h1h324q23 0 36.5 -16t9.5 -39q-5 -23 -24 -39.5t-41 -16.5h-271l-33 -184h234q23 0 36 -16t9 -39t-23 -39t-42 -16h-233l-33 -184h271q23 0 36.5 -16.5t9.5 -39.5q-5 -23 -24 -39t-41 -16h-325h-1zM589 920 q27 0 42 -17.5t10 -44.5l-1 -7q-6 -27 -28.5 -44t-49.5 -17q-28 0 -43.5 17t-9.5 44l1 7q5 27 28 44.5t51 17.5zM390 920q27 0 42 -17.5t10 -44.5l-1 -7q-6 -27 -28.5 -44t-49.5 -17q-28 0 -43.5 17t-9.5 44l1 7q5 27 28 44.5t51 17.5z" />
<glyph unicode="&#xcc;" horiz-adv-x="274" d="M131 54q-4 -22 -23 -38.5t-42 -16.5t-36.5 16t-9.5 39l104 590q5 23 24 39t41 16q23 0 36.5 -16t9.5 -39zM272 790q-42 0 -70 27l-68 64q-17 15 -17 30q0 14 23.5 26.5t48.5 12.5q30 0 48 -29l57 -88q9 -13 9 -22q0 -21 -31 -21z" />
<glyph unicode="&#xcd;" horiz-adv-x="274" d="M227 54q-4 -22 -23 -38.5t-42 -16.5t-36.5 16t-9.5 39l104 590q5 23 24 39t41 16q23 0 36.5 -16t9.5 -39zM218 790q-30 0 -30 21q0 10 8 22l57 88q18 29 48 29q25 0 48.5 -12.5t23.5 -26.5q0 -15 -17 -30l-67 -64q-29 -27 -71 -27z" />
<glyph unicode="&#xce;" horiz-adv-x="274" d="M148 54q-4 -22 -23 -38.5t-42 -16.5t-36.5 16t-9.5 39l104 590q5 23 24 39t41 16q23 0 36.5 -16t9.5 -39zM221 862l-66 -45q-39 -27 -82 -27q-12 0 -18 5.5t-3 14.5q2 7 19 24l91 83q32 29 67 29h36q35 0 49 -29l41 -83q8 -15 5 -24q-6 -20 -35 -20q-40 0 -66 27z" />
<glyph unicode="&#xcf;" horiz-adv-x="274" d="M156 54q-4 -22 -23 -38.5t-42 -16.5t-36.5 16t-9.5 39l104 590q5 23 24 39t41 16q23 0 36.5 -16t9.5 -39zM360 920q27 0 42 -17.5t10 -44.5l-1 -7q-6 -27 -28.5 -44t-49.5 -17q-28 0 -43.5 17t-9.5 44l1 7q5 27 28 44.5t51 17.5zM161 920q27 0 42 -17.5t10 -44.5l-1 -7 q-6 -27 -28.5 -44t-49.5 -17q-28 0 -43.5 17t-9.5 44l1 7q5 27 28 44.5t51 17.5z" />
<glyph unicode="&#xd0;" horiz-adv-x="812" d="M371 700q145 0 229 -102.5t59 -247.5q-17 -95 -78 -175.5t-150 -127.5t-184 -47h-117h-1q-23 0 -36 16.5t-9 39.5l46 261h-43q-15 0 -23 10.5t-4 25.5q3 15 16 25.5t28 10.5h38l45 256q4 23 23.5 39t42.5 16h118zM548 350q17 100 -40.5 169.5t-156.5 70.5h-63l-35 -201 h37q15 0 22.5 -10.5t4.5 -25.5q-4 -15 -16.5 -25.5t-27.5 -10.5h-33l-36 -206h63q99 0 181.5 70t99.5 169z" />
<glyph unicode="&#xd1;" horiz-adv-x="790" d="M110 55l103 587q5 31 32 47q20 14 42 10.5t32 -22.5l246 -452l73 417q5 23 24 39t41 16q23 0 36.5 -16t9.5 -39l-104 -587q-4 -23 -23 -39t-42 -16q-25 0 -38 19q0 1 -1.5 3t-2.5 4l-244 448l-74 -419q-4 -23 -23 -39t-42 -16t-36 16t-9 39zM451 803q-13 -20 -33 -20 q-15 0 -26 10t-11 23q0 9 4 23q17 46 40.5 68.5t61.5 22.5q30 0 79 -20t65 -20q29 0 46 32q13 20 33 20q15 0 26 -10t11 -23q0 -9 -4 -23q-17 -46 -40.5 -68.5t-61.5 -22.5q-30 0 -79 20t-65 20q-29 0 -46 -32z" />
<glyph unicode="&#xd2;" horiz-adv-x="850" d="M361 -1q-140 0 -218 104q-79 101 -53 246t140 246q115 104 255 104q138 0 218 -104q78 -102 52 -246q-24 -144 -139 -246q-115 -104 -255 -104zM297 519q-78 -70 -96 -170q-18 -99 36 -171q52 -67 144 -69q91 2 168 69q78 72 96 171q18 100 -36 170q-53 69 -144 69 t-168 -69zM698 790q-42 0 -70 27l-68 64q-17 15 -17 30q0 14 23.5 26.5t48.5 12.5q30 0 48 -29l57 -88q9 -13 9 -22q0 -21 -31 -21z" />
<glyph unicode="&#xd3;" horiz-adv-x="850" d="M361 -1q-140 0 -218 104q-79 101 -53 246t140 246q115 104 255 104q138 0 218 -104q78 -102 52 -246q-24 -144 -139 -246q-115 -104 -255 -104zM297 519q-78 -70 -96 -170q-18 -99 36 -171q52 -67 144 -69q91 2 168 69q78 72 96 171q18 100 -36 170q-53 69 -144 69 t-168 -69zM407 790q-30 0 -30 21q0 10 8 22l57 88q18 29 48 29q25 0 48.5 -12.5t23.5 -26.5q0 -15 -17 -30l-67 -64q-29 -27 -71 -27z" />
<glyph unicode="&#xd4;" horiz-adv-x="850" d="M361 -1q-140 0 -218 104q-79 101 -53 246t140 246q115 104 255 104q138 0 218 -104q78 -102 52 -246q-24 -144 -139 -246q-115 -104 -255 -104zM297 519q-78 -70 -96 -170q-18 -99 36 -171q52 -67 144 -69q91 2 168 69q78 72 96 171q18 100 -36 170q-53 69 -144 69 t-168 -69zM584 862l-66 -45q-39 -27 -82 -27q-12 0 -18 5.5t-3 14.5q2 7 19 24l91 83q32 29 67 29h36q34 0 49 -29l41 -83q8 -15 5 -24q-6 -20 -35 -20q-40 0 -66 27z" />
<glyph unicode="&#xd5;" horiz-adv-x="850" d="M361 -1q-140 0 -218 104q-79 101 -53 246t140 246q115 104 255 104q138 0 218 -104q78 -102 52 -246q-24 -144 -139 -246q-115 -104 -255 -104zM297 519q-78 -70 -96 -170q-18 -99 36 -171q52 -67 144 -69q91 2 168 69q78 72 96 171q18 100 -36 170q-53 69 -144 69 t-168 -69zM439 803q-13 -20 -33 -20q-15 0 -26 10t-11 23q0 9 4 23q17 46 40.5 68.5t61.5 22.5q30 0 79 -20t65 -20q29 0 46 32q13 20 33 20q15 0 26 -10t11 -23q0 -9 -4 -23q-17 -46 -40.5 -68.5t-61.5 -22.5q-30 0 -79 20t-65 20q-29 0 -46 -32z" />
<glyph unicode="&#xd6;" horiz-adv-x="850" d="M361 -1q-140 0 -218 104q-79 101 -53 246t140 246q115 104 255 104q138 0 218 -104q78 -102 52 -246q-24 -144 -139 -246q-115 -104 -255 -104zM297 519q-78 -70 -96 -170q-18 -99 36 -171q52 -67 144 -69q91 2 168 69q78 72 96 171q18 100 -36 170q-53 69 -144 69 t-168 -69zM681 920q27 0 42 -17.5t10 -44.5l-1 -7q-6 -27 -28.5 -44t-49.5 -17q-28 0 -43.5 17t-9.5 44l1 7q5 27 28 44.5t51 17.5zM482 920q27 0 42 -17.5t10 -44.5l-1 -7q-6 -27 -28.5 -44t-49.5 -17q-28 0 -43.5 17t-9.5 44l1 7q5 27 28 44.5t51 17.5z" />
<glyph unicode="&#xd7;" horiz-adv-x="620" d="M568 481l-147 -128l114 -128q15 -18 11 -40q-3 -23 -21 -38.5t-40 -15.5t-38 16l-110 132l-146 -131q-19 -17 -42 -17q-22 0 -35 15t-10 37q3 23 23 40l147 128l-115 128q-14 19 -10 40q3 23 21 38.5t40 15.5q23 0 37 -17l111 -131l146 131q19 17 41 17q23 0 36 -15.5 t10 -37.5t-23 -39z" />
<glyph unicode="&#xd9;" horiz-adv-x="760" d="M716 700q23 0 36.5 -16t9.5 -39l-63 -356q-21 -119 -120.5 -204t-219.5 -85t-189.5 85t-48.5 204l62 356q4 23 23.5 39t42.5 16t36 -16t9 -39l-63 -356q-13 -74 30.5 -126t116.5 -52q74 0 135.5 52t74.5 126l63 356q4 23 23 39t42 16zM548 790q-42 0 -70 27l-68 64 q-17 15 -17 30q0 14 23.5 26.5t48.5 12.5q30 0 48 -29l57 -88q9 -13 9 -22q0 -21 -31 -21z" />
<glyph unicode="&#xda;" horiz-adv-x="760" d="M716 700q23 0 36.5 -16t9.5 -39l-63 -356q-21 -119 -120.5 -204t-219.5 -85t-189.5 85t-48.5 204l62 356q4 23 23.5 39t42.5 16t36 -16t9 -39l-63 -356q-13 -74 30.5 -126t116.5 -52q74 0 135.5 52t74.5 126l63 356q4 23 23 39t42 16zM468 790q-30 0 -30 21q0 10 8 22 l57 88q18 29 48 29q25 0 48.5 -12.5t23.5 -26.5q0 -15 -17 -30l-67 -64q-29 -27 -71 -27z" />
<glyph unicode="&#xdb;" horiz-adv-x="760" d="M716 700q23 0 36.5 -16t9.5 -39l-63 -356q-21 -119 -120.5 -204t-219.5 -85t-189.5 85t-48.5 204l62 356q4 23 23.5 39t42.5 16t36 -16t9 -39l-63 -356q-13 -74 30.5 -126t116.5 -52q74 0 135.5 52t74.5 126l63 356q4 23 23 39t42 16zM557 862l-66 -45q-39 -27 -82 -27 q-12 0 -18 5.5t-3 14.5q2 7 19 24l91 83q32 29 67 29h36q35 0 49 -29l41 -83q8 -15 5 -24q-6 -20 -35 -20q-40 0 -66 27z" />
<glyph unicode="&#xdc;" horiz-adv-x="760" d="M716 700q23 0 36.5 -16t9.5 -39l-63 -356q-21 -119 -120.5 -204t-219.5 -85t-189.5 85t-48.5 204l62 356q4 23 23.5 39t42.5 16t36 -16t9 -39l-63 -356q-13 -74 30.5 -126t116.5 -52q74 0 135.5 52t74.5 126l63 356q4 23 23 39t42 16zM634 920q27 0 42 -17.5t10 -44.5 l-1 -7q-6 -27 -28.5 -44t-49.5 -17q-28 0 -43.5 17t-9.5 44l1 7q5 27 28 44.5t51 17.5zM435 920q27 0 42 -17.5t10 -44.5l-1 -7q-6 -27 -28.5 -44t-49.5 -17q-28 0 -43.5 17t-9.5 44l1 7q5 27 28 44.5t51 17.5z" />
<glyph unicode="&#xdd;" horiz-adv-x="716" d="M592 611l-257 -283l-48 -274q-4 -22 -23 -38.5t-42 -16.5t-36.5 16t-9.5 39l49 274l-157 283q-10 19 -2.5 41t27.5 36q21 14 43.5 10.5t32.5 -22.5l131 -236l214 236q16 19 39.5 22.5t39.5 -10.5t16 -36t-17 -41zM374 790q-30 0 -30 21q0 10 8 22l57 88q18 29 48 29 q25 0 48.5 -12.5t23.5 -26.5q0 -15 -17 -30l-67 -64q-29 -27 -71 -27z" />
<glyph unicode="&#xdf;" horiz-adv-x="620" d="M313 31q6 38 51 48q119 18 135 104v2q13 77 -96 106q-43 14 -35 53q5 33 35 50q101 51 114 126v2q8 43 -15 69.5t-69 26.5q-50 0 -87 -35t-47 -93l-80 -452q-5 -25 -25.5 -42t-45.5 -17t-39 17t-10 42l79 448q19 109 94 172t185 63q99 0 148.5 -53.5t34.5 -134.5v-2 q-19 -109 -141 -171q143 -51 120 -178v-2q-16 -92 -92 -144.5t-168 -54.5q-25 0 -37.5 14t-8.5 36z" />
<glyph unicode="&#xe0;" horiz-adv-x="574" d="M269 1q-100 0 -156 74q-56 76 -37 175q16 101 98 176q83 73 183 73q72 0 125 -42q7 18 23.5 30t35.5 12q23 0 35 -15.5t8 -37.5l-68 -391q-5 -23 -22.5 -38.5t-39.5 -15.5q-20 0 -32 12t-13 31q-69 -43 -140 -43zM239 353q-48 -43 -58 -103t22 -102q30 -41 85 -41 q54 0 98 41q47 41 58 102q12 59 -22 103q-31 41 -84 41q-51 0 -99 -41zM496 590q-42 0 -70 27l-68 64q-17 15 -17 30q0 14 23.5 26.5t48.5 12.5q30 0 48 -29l57 -88q9 -13 9 -22q0 -21 -31 -21z" />
<glyph unicode="&#xe1;" horiz-adv-x="574" d="M269 1q-100 0 -156 74q-56 76 -37 175q16 101 98 176q83 73 183 73q72 0 125 -42q7 18 23.5 30t35.5 12q23 0 35 -15.5t8 -37.5l-68 -391q-5 -23 -22.5 -38.5t-39.5 -15.5q-20 0 -32 12t-13 31q-69 -43 -140 -43zM239 353q-48 -43 -58 -103t22 -102q30 -41 85 -41 q54 0 98 41q47 41 58 102q12 59 -22 103q-31 41 -84 41q-51 0 -99 -41zM378 590q-30 0 -30 21q0 10 8 22l57 88q18 29 48 29q25 0 48.5 -12.5t23.5 -26.5q0 -15 -17 -30l-67 -64q-29 -27 -71 -27z" />
<glyph unicode="&#xe2;" horiz-adv-x="574" d="M269 1q-100 0 -156 74q-56 76 -37 175q16 101 98 176q83 73 183 73q72 0 125 -42q7 18 23.5 30t35.5 12q23 0 35 -15.5t8 -37.5l-68 -391q-5 -23 -22.5 -38.5t-39.5 -15.5q-20 0 -32 12t-13 31q-69 -43 -140 -43zM239 353q-48 -43 -58 -103t22 -102q30 -41 85 -41 q54 0 98 41q47 41 58 102q12 59 -22 103q-31 41 -84 41q-51 0 -99 -41zM496 662l-66 -45q-39 -27 -82 -27q-12 0 -18 5.5t-3 14.5q2 7 19 24l91 83q32 29 67 29h36q34 0 49 -29l41 -83q8 -15 5 -24q-6 -20 -35 -20q-40 0 -66 27z" />
<glyph unicode="&#xe3;" horiz-adv-x="574" d="M269 1q-100 0 -156 74q-56 76 -37 175q16 101 98 176q83 73 183 73q72 0 125 -42q7 18 23.5 30t35.5 12q23 0 35 -15.5t8 -37.5l-68 -391q-5 -23 -22.5 -38.5t-39.5 -15.5q-20 0 -32 12t-13 31q-69 -43 -140 -43zM239 353q-48 -43 -58 -103t22 -102q30 -41 85 -41 q54 0 98 41q47 41 58 102q12 59 -22 103q-31 41 -84 41q-51 0 -99 -41zM360 603q-13 -20 -33 -20q-15 0 -26 10t-11 23q0 9 4 23q17 46 40.5 68.5t61.5 22.5q30 0 79 -20t65 -20q29 0 46 32q13 20 33 20q15 0 26 -10t11 -23q0 -9 -4 -23q-17 -46 -40.5 -68.5t-61.5 -22.5 q-30 0 -79 20t-65 20q-29 0 -46 -32z" />
<glyph unicode="&#xe4;" horiz-adv-x="574" d="M269 1q-100 0 -156 74q-56 76 -37 175q16 101 98 176q83 73 183 73q72 0 125 -42q7 18 23.5 30t35.5 12q23 0 35 -15.5t8 -37.5l-68 -391q-5 -23 -22.5 -38.5t-39.5 -15.5q-20 0 -32 12t-13 31q-69 -43 -140 -43zM239 353q-48 -43 -58 -103t22 -102q30 -41 85 -41 q54 0 98 41q47 41 58 102q12 59 -22 103q-31 41 -84 41q-51 0 -99 -41zM620 720q27 0 42 -17.5t10 -44.5l-1 -7q-6 -27 -28.5 -44t-49.5 -17q-28 0 -43.5 17t-9.5 44l1 7q5 27 28 44.5t51 17.5zM421 720q27 0 42 -17.5t10 -44.5l-1 -7q-6 -27 -28.5 -44t-49.5 -17 q-28 0 -43.5 17t-9.5 44l1 7q5 27 28 44.5t51 17.5z" />
<glyph unicode="&#xe5;" horiz-adv-x="574" d="M402 570q-51 0 -83 37t-23 86v2q9 50 54 86.5t96 36.5t83 -36.5t23 -86.5v-2q-9 -49 -54 -86t-96 -37zM415 646q20 0 36.5 13.5t20.5 33.5v2q4 19 -8 33t-32 14t-36 -13.5t-20 -33.5v-2q-4 -20 7.5 -33.5t31.5 -13.5zM257 1q-100 0 -156 74q-56 76 -37 175q16 101 98 176 q83 73 183 73q72 0 125 -42q7 18 23.5 30t35.5 12q23 0 35 -15.5t8 -37.5l-68 -391q-5 -23 -22.5 -38.5t-39.5 -15.5q-20 0 -32 12t-13 31q-69 -43 -140 -43zM227 353q-48 -43 -58 -103t22 -102q30 -41 85 -41q54 0 98 41q47 41 58 102q12 59 -22 103q-31 41 -84 41 q-51 0 -99 -41z" />
<glyph unicode="&#xe6;" horiz-adv-x="954" d="M661 0q-89 0 -146 57v-1q-5 -23 -23.5 -39t-40.5 -16q-20 0 -32.5 12.5t-13.5 31.5q-70 -44 -143 -44q-102 0 -160 76q-57 77 -38 179q18 105 101 180q85 75 187 75q74 0 128 -43q7 19 24 31t37 12q23 0 35.5 -16t8.5 -38l-1 -6q80 59 170 59q100 0 158 -67t45 -169 q0 -4 -1 -6q0 -5 -2 -9q-6 -18 -23 -29.5t-38 -11.5h-325q0 -40 22 -67q13 -18 38.5 -31t51.5 -15q73 -6 122 39q17 17 35.5 16.5t25.5 -5t12 -9.5q13 -14 11.5 -33.5t-15.5 -33.5q-45 -43 -93 -61t-117 -18zM231 361q-49 -44 -59 -105q-11 -62 22 -104q31 -42 87 -42 t101 42q48 42 59 104q12 61 -22 105q-32 42 -86 42t-102 -42zM736 413q-60 -3 -101.5 -36.5t-56.5 -71.5h289q-2 36 -36.5 69.5t-94.5 38.5z" />
<glyph unicode="&#xe7;" horiz-adv-x="571" d="M299 0q-108 0 -171.5 74.5t-44.5 180.5t109 180.5t197 74.5q91 0 152 -55q15 -14 14 -36.5t-18 -40.5q-16 -17 -39 -20t-39 11q-35 32 -89 32q-63 0 -115 -43t-63 -103t26 -103.5t100 -43.5q54 0 101 33q20 14 42 11t32 -21q11 -18 4 -40.5t-27 -35.5q-79 -55 -171 -55z M365 10l-61 -141q-12 -29 -39 -29q-20 0 -45 14.5t-25 29.5q0 12 8 23l71 103h91z" />
<glyph unicode="&#xe8;" horiz-adv-x="584" d="M283 0q-102 1 -159 74t-38 176t102.5 176.5t185.5 73.5q99 0 155.5 -65.5t43.5 -166.5q0 -4 -1 -5q0 -5 -2 -9q-5 -18 -21.5 -29t-37.5 -11h-319q0 -39 22 -66q12 -18 37 -30.5t51 -14.5q71 -6 119 38q17 16 35.5 16t25 -4.5t11.5 -9.5q13 -14 11.5 -33t-15.5 -33 q-45 -42 -92 -59.5t-114 -17.5zM357 405q-58 -3 -99 -36t-56 -70h283q-2 35 -35.5 68t-92.5 38zM517 590q-42 0 -70 27l-68 64q-17 15 -17 30q0 14 23.5 26.5t48.5 12.5q30 0 48 -29l57 -88q9 -13 9 -22q0 -21 -31 -21z" />
<glyph unicode="&#xe9;" horiz-adv-x="584" d="M283 0q-102 1 -159 74t-38 176t102.5 176.5t185.5 73.5q99 0 155.5 -65.5t43.5 -166.5q0 -4 -1 -5q0 -5 -2 -9q-5 -18 -21.5 -29t-37.5 -11h-319q0 -39 22 -66q12 -18 37 -30.5t51 -14.5q71 -6 119 38q17 16 35.5 16t25 -4.5t11.5 -9.5q13 -14 11.5 -33t-15.5 -33 q-45 -42 -92 -59.5t-114 -17.5zM357 405q-58 -3 -99 -36t-56 -70h283q-2 35 -35.5 68t-92.5 38zM352 590q-30 0 -30 21q0 10 8 22l57 88q18 29 48 29q25 0 48.5 -12.5t23.5 -26.5q0 -15 -17 -30l-67 -64q-29 -27 -71 -27z" />
<glyph unicode="&#xea;" horiz-adv-x="584" d="M283 0q-102 1 -159 74t-38 176t102.5 176.5t185.5 73.5q99 0 155.5 -65.5t43.5 -166.5q0 -4 -1 -5q0 -5 -2 -9q-5 -18 -21.5 -29t-37.5 -11h-319q0 -39 22 -66q12 -18 37 -30.5t51 -14.5q71 -6 119 38q17 16 35.5 16t25 -4.5t11.5 -9.5q13 -14 11.5 -33t-15.5 -33 q-45 -42 -92 -59.5t-114 -17.5zM357 405q-58 -3 -99 -36t-56 -70h283q-2 35 -35.5 68t-92.5 38zM448 662l-66 -45q-39 -27 -82 -27q-12 0 -18 5.5t-3 14.5q2 7 19 24l91 83q32 29 67 29h36q34 0 49 -29l41 -83q8 -15 5 -24q-6 -20 -35 -20q-40 0 -66 27z" />
<glyph unicode="&#xeb;" horiz-adv-x="584" d="M283 0q-102 1 -159 74t-38 176t102.5 176.5t185.5 73.5q99 0 155.5 -65.5t43.5 -166.5q0 -4 -1 -5q0 -5 -2 -9q-5 -18 -21.5 -29t-37.5 -11h-319q0 -39 22 -66q12 -18 37 -30.5t51 -14.5q71 -6 119 38q17 16 35.5 16t25 -4.5t11.5 -9.5q13 -14 11.5 -33t-15.5 -33 q-45 -42 -92 -59.5t-114 -17.5zM357 405q-58 -3 -99 -36t-56 -70h283q-2 35 -35.5 68t-92.5 38zM565 720q27 0 42 -17.5t10 -44.5l-1 -7q-6 -27 -28.5 -44t-49.5 -17q-28 0 -43.5 17t-9.5 44l1 7q5 27 28 44.5t51 17.5zM366 720q27 0 42 -17.5t10 -44.5l-1 -7 q-6 -27 -28.5 -44t-49.5 -17q-28 0 -43.5 17t-9.5 44l1 7q5 27 28 44.5t51 17.5z" />
<glyph unicode="&#xec;" horiz-adv-x="249" d="M7 54l73 410q4 23 23 39t42 16t36 -16.5t9 -38.5l-72 -410q-4 -23 -23 -39t-42 -16t-36.5 16t-9.5 39zM202 590q-42 0 -70 27l-68 64q-17 15 -17 30q0 14 23.5 26.5t48.5 12.5q30 0 48 -29l57 -88q9 -13 9 -22q0 -21 -31 -21z" />
<glyph unicode="&#xed;" horiz-adv-x="249" d="M105 54l73 410q4 23 23 39t42 16t36 -16.5t9 -38.5l-72 -410q-4 -23 -23 -39t-42 -16t-36.5 16t-9.5 39zM211 590q-30 0 -30 21q0 10 8 22l57 88q18 29 48 29q25 0 48.5 -12.5t23.5 -26.5q0 -15 -17 -30l-67 -64q-29 -27 -71 -27z" />
<glyph unicode="&#xee;" horiz-adv-x="249" d="M20 54l73 410q4 23 23 39t42 16t36 -16.5t9 -38.5l-72 -410q-4 -23 -23 -39t-42 -16t-36.5 16t-9.5 39zM212 662l-66 -45q-39 -27 -82 -27q-12 0 -18 5.5t-3 14.5q2 7 19 24l91 83q32 29 67 29h36q34 0 49 -29l41 -83q8 -15 5 -24q-6 -20 -35 -20q-40 0 -66 27z" />
<glyph unicode="&#xef;" horiz-adv-x="249" d="M12 54l73 410q4 23 23 39t42 16t36 -16.5t9 -38.5l-72 -410q-4 -23 -23 -39t-42 -16t-36.5 16t-9.5 39zM312 720q27 0 42 -17.5t10 -44.5l-1 -7q-6 -27 -28.5 -44t-49.5 -17q-28 0 -43.5 17t-9.5 44l1 7q5 27 28 44.5t51 17.5zM113 720q27 0 42 -17.5t10 -44.5l-1 -7 q-6 -27 -28.5 -44t-49.5 -17q-28 0 -43.5 17t-9.5 44l1 7q5 27 28 44.5t51 17.5z" />
<glyph unicode="&#xf0;" horiz-adv-x="628" d="M482 445l-81 143l-117 -48q-8 -3 -17 -3q-16 0 -25.5 11t-6.5 27q3 26 32 36l97 40q-7 13 -5 32q4 23 22.5 39t41.5 16q29 0 44 -27l8 -16l93 38q14 4 18 4q16 0 25 -11.5t7 -27.5q-4 -26 -32 -36l-77 -31l70 -128q36 -67 47.5 -123t1.5 -121q-17 -114 -105 -192.5 t-214 -78.5q-115 0 -180 76t-48 185q16 104 92.5 170.5t176.5 66.5q70 0 132 -41zM507 247q10 63 -27 106.5t-106 43.5q-68 0 -116 -42.5t-59 -108.5q-10 -64 27 -109.5t104 -45.5q68 0 117.5 45t59.5 111z" />
<glyph unicode="&#xf1;" horiz-adv-x="613" d="M410 55l42 236q7 43 -17.5 73t-67.5 30t-78 -30t-42 -73l-43 -236q-3 -22 -21.5 -38t-40.5 -16t-35 16t-9 38l42 236l27 156q5 22 23 37.5t40 15.5q34 0 42 -31q54 31 113 31q87 0 137.5 -61t34.5 -148l-42 -236q-3 -22 -21 -38t-40 -16t-35 15.5t-9 38.5zM298 603 q-13 -20 -33 -20q-15 0 -26 10t-11 23q0 9 4 23q17 46 40.5 68.5t61.5 22.5q30 0 79 -20t65 -20q29 0 46 32q13 20 33 20q15 0 26 -10t11 -23q0 -9 -4 -23q-17 -46 -40.5 -68.5t-61.5 -22.5q-30 0 -79 20t-65 20q-29 0 -46 -32z" />
<glyph unicode="&#xf2;" horiz-adv-x="640" d="M353 500q98 0 158 -75q55 -74 37 -176q-18 -104 -100 -176q-82 -75 -183 -75q-99 0 -158 75q-55 73 -37 176q18 101 99 176q85 75 184 75zM442 249q11 62 -23 102q-30 42 -84 42t-101 -42q-46 -41 -58 -102q-11 -62 22 -103q32 -42 85 -42t101 42q46 41 58 103zM477 590 q-42 0 -70 27l-68 64q-17 15 -17 30q0 14 23.5 26.5t48.5 12.5q30 0 48 -29l57 -88q9 -13 9 -22q0 -21 -31 -21z" />
<glyph unicode="&#xf3;" horiz-adv-x="640" d="M353 500q98 0 158 -75q55 -74 37 -176q-18 -104 -100 -176q-82 -75 -183 -75q-99 0 -158 75q-55 73 -37 176q18 101 99 176q85 75 184 75zM442 249q11 62 -23 102q-30 42 -84 42t-101 -42q-46 -41 -58 -102q-11 -62 22 -103q32 -42 85 -42t101 42q46 41 58 103zM272 590 q-30 0 -30 21q0 10 8 22l57 88q18 29 48 29q25 0 48.5 -12.5t23.5 -26.5q0 -15 -17 -30l-67 -64q-29 -27 -71 -27z" />
<glyph unicode="&#xf4;" horiz-adv-x="640" d="M353 500q98 0 158 -75q55 -74 37 -176q-18 -104 -100 -176q-82 -75 -183 -75q-99 0 -158 75q-55 73 -37 176q18 101 99 176q85 75 184 75zM442 249q11 62 -23 102q-30 42 -84 42t-101 -42q-46 -41 -58 -102q-11 -62 22 -103q32 -42 85 -42t101 42q46 41 58 103zM442 662 l-66 -45q-39 -27 -82 -27q-12 0 -18 5.5t-3 14.5q2 7 19 24l91 83q32 29 67 29h36q34 0 49 -29l41 -83q8 -15 5 -24q-6 -20 -35 -20q-40 0 -66 27z" />
<glyph unicode="&#xf5;" horiz-adv-x="640" d="M353 500q98 0 158 -75q55 -74 37 -176q-18 -104 -100 -176q-82 -75 -183 -75q-99 0 -158 75q-55 73 -37 176q18 101 99 176q85 75 184 75zM442 249q11 62 -23 102q-30 42 -84 42t-101 -42q-46 -41 -58 -102q-11 -62 22 -103q32 -42 85 -42t101 42q46 41 58 103zM305 603 q-13 -20 -33 -20q-15 0 -26 10t-11 23q0 9 4 23q17 46 40.5 68.5t61.5 22.5q30 0 79 -20t65 -20q29 0 46 32q13 20 33 20q15 0 26 -10t11 -23q0 -9 -4 -23q-17 -46 -40.5 -68.5t-61.5 -22.5q-30 0 -79 20t-65 20q-29 0 -46 -32z" />
<glyph unicode="&#xf6;" horiz-adv-x="640" d="M353 500q98 0 158 -75q55 -74 37 -176q-18 -104 -100 -176q-82 -75 -183 -75q-99 0 -158 75q-55 73 -37 176q18 101 99 176q85 75 184 75zM442 249q11 62 -23 102q-30 42 -84 42t-101 -42q-46 -41 -58 -102q-11 -62 22 -103q32 -42 85 -42t101 42q46 41 58 103zM533 720 q27 0 42 -17.5t10 -44.5l-1 -7q-6 -27 -28.5 -44t-49.5 -17q-28 0 -43.5 17t-9.5 44l1 7q5 27 28 44.5t51 17.5zM334 720q27 0 42 -17.5t10 -44.5l-1 -7q-6 -27 -28.5 -44t-49.5 -17q-28 0 -43.5 17t-9.5 44l1 7q5 27 28 44.5t51 17.5z" />
<glyph unicode="&#xf7;" horiz-adv-x="620" d="M517 300h-404q-22 0 -35 15.5t-9 36.5q3 21 20 36.5t39 15.5h404q22 0 35 -15.5t10 -36.5q-4 -21 -21.5 -36.5t-38.5 -15.5zM363 629q28 0 46 -19.5t14 -46.5l-1 -5q-5 -28 -28 -47.5t-51 -19.5q-29 0 -46 19.5t-13 47.5l1 5q4 27 27 46.5t51 19.5zM302 213 q29 0 46 -19.5t13 -47.5l-1 -5q-4 -28 -26.5 -47t-51.5 -19t-46.5 19t-13.5 47l1 5q5 28 28 47.5t51 19.5z" />
<glyph unicode="&#xf9;" horiz-adv-x="613" d="M519 500q23 0 35 -15.5t8 -37.5l-41 -237q-15 -86 -87 -147.5t-158 -61.5q-87 0 -137.5 61.5t-34.5 147.5l41 237q4 22 22 37.5t40 15.5t35 -15t9 -38l-42 -237q-7 -42 18 -72t67 -30q43 0 78 30t43 72l42 237q4 22 22 37.5t40 15.5zM409 590q-42 0 -70 27l-68 64 q-17 15 -17 30q0 14 23.5 26.5t48.5 12.5q30 0 48 -29l57 -88q9 -13 9 -22q0 -21 -31 -21z" />
<glyph unicode="&#xfa;" horiz-adv-x="613" d="M519 500q23 0 35 -15.5t8 -37.5l-41 -237q-15 -86 -87 -147.5t-158 -61.5q-87 0 -137.5 61.5t-34.5 147.5l41 237q4 22 22 37.5t40 15.5t35 -15t9 -38l-42 -237q-7 -42 18 -72t67 -30q43 0 78 30t43 72l42 237q4 22 22 37.5t40 15.5zM316 590q-30 0 -30 21q0 10 8 22 l57 88q18 29 48 29q25 0 48.5 -12.5t23.5 -26.5q0 -15 -17 -30l-67 -64q-29 -27 -71 -27z" />
<glyph unicode="&#xfb;" horiz-adv-x="613" d="M519 500q23 0 35 -15.5t8 -37.5l-41 -237q-15 -86 -87 -147.5t-158 -61.5q-87 0 -137.5 61.5t-34.5 147.5l41 237q4 22 22 37.5t40 15.5t35 -15t9 -38l-42 -237q-7 -42 18 -72t67 -30q43 0 78 30t43 72l42 237q4 22 22 37.5t40 15.5zM424 662l-66 -45q-39 -27 -82 -27 q-12 0 -18 5.5t-3 14.5q2 7 19 24l91 83q32 29 67 29h36q34 0 49 -29l41 -83q8 -15 5 -24q-6 -20 -35 -20q-40 0 -66 27z" />
<glyph unicode="&#xfc;" horiz-adv-x="613" d="M519 500q23 0 35 -15.5t8 -37.5l-41 -237q-15 -86 -87 -147.5t-158 -61.5q-87 0 -137.5 61.5t-34.5 147.5l41 237q4 22 22 37.5t40 15.5t35 -15t9 -38l-42 -237q-7 -42 18 -72t67 -30q43 0 78 30t43 72l42 237q4 22 22 37.5t40 15.5zM505 720q27 0 42 -17.5t10 -44.5 l-1 -7q-6 -27 -28.5 -44t-49.5 -17q-28 0 -43.5 17t-9.5 44l1 7q5 27 28 44.5t51 17.5zM306 720q27 0 42 -17.5t10 -44.5l-1 -7q-6 -27 -28.5 -44t-49.5 -17q-28 0 -43.5 17t-9.5 44l1 7q5 27 28 44.5t51 17.5z" />
<glyph unicode="&#xfd;" horiz-adv-x="588" d="M537 447l-14 -77l-54 -308q-17 -100 -100 -170.5t-183 -70.5q-57 0 -102 25q-18 10 -21.5 31t9.5 41q14 20 36.5 27t40.5 -3q26 -13 56 -13q43 0 82.5 25t59.5 66q-48 -24 -101 -24q-87 0 -138 62t-36 149l42 240q4 22 22.5 37.5t40.5 15.5q23 0 36 -15.5t9 -37.5 l-43 -240q-8 -43 17.5 -73.5t68.5 -30.5t79 30.5t44 73.5l41 240q3 16 14 28q22 25 49 25q19 0 29 -10q21 -14 16 -43zM309 590q-30 0 -30 21q0 10 8 22l57 88q18 29 48 29q25 0 48.5 -12.5t23.5 -26.5q0 -15 -17 -30l-67 -64q-29 -27 -71 -27z" />
<glyph unicode="&#xff;" horiz-adv-x="588" d="M537 447l-14 -77l-54 -308q-17 -100 -100 -170.5t-183 -70.5q-57 0 -102 25q-18 10 -21.5 31t9.5 41q14 20 36.5 27t40.5 -3q26 -13 56 -13q43 0 82.5 25t59.5 66q-48 -24 -101 -24q-87 0 -138 62t-36 149l42 240q4 22 22.5 37.5t40.5 15.5q23 0 36 -15.5t9 -37.5 l-43 -240q-8 -43 17.5 -73.5t68.5 -30.5t79 30.5t44 73.5l41 240q3 16 14 28q22 25 49 25q19 0 29 -10q21 -14 16 -43zM506 720q27 0 42 -17.5t10 -44.5l-1 -7q-6 -27 -28.5 -44t-49.5 -17q-28 0 -43.5 17t-9.5 44l1 7q5 27 28 44.5t51 17.5zM307 720q27 0 42 -17.5 t10 -44.5l-1 -7q-6 -27 -28.5 -44t-49.5 -17q-28 0 -43.5 17t-9.5 44l1 7q5 27 28 44.5t51 17.5z" />
<glyph unicode="&#x152;" horiz-adv-x="1152" d="M622 1q-23 0 -36 16t-9 39l10 56q-1 0 -2.5 -2t-2.5 -2q-53 -49 -121.5 -78t-136.5 -29q-70 0 -129 28.5t-97 78.5q-81 105 -54 253q25 147 144 253q117 107 263 107q68 0 126.5 -28.5t94.5 -78.5q0 -2 3 -5l6 37q5 23 23.5 39t41.5 16h327q22 0 35.5 -16t9.5 -39 t-23.5 -39.5t-41.5 -16.5h-271l-32 -183h233q22 0 35.5 -16.5t9.5 -38.5q-4 -23 -23 -39.5t-42 -16.5h-233l-32 -184h271q22 0 35.5 -16.5t9.5 -39.5q-4 -22 -23.5 -38.5t-41.5 -16.5h-324l-1 1zM515 187q81 71 99 174q18 102 -37 175q-54 71 -146 71q-95 0 -174 -71 q-81 -71 -99 -175t37 -174q54 -72 150 -72q90 0 170 72z" />
<glyph unicode="&#x153;" horiz-adv-x="1055" d="M658 0q-60 0 -106.5 26.5t-72.5 72.5q-12 -13 -25 -25q-82 -76 -186 -76q-102 0 -160 76q-56 74 -38 179q18 102 101 179q86 76 187 76t160 -76l5 -7.5l5.5 -8.5t4.5 -8q94 102 218 102q100 0 158 -67t45 -169q0 -4 -1 -6q0 -5 -2 -9q-6 -18 -23 -29.5t-38 -11.5h-325 q0 -40 22 -67q13 -18 38.5 -31t51.5 -15q73 -6 122 39q17 17 35.5 16.5t25.5 -5t12 -9.5q13 -14 11.5 -33.5t-15.5 -33.5q-45 -43 -93 -61t-117 -18zM448 253q11 62 -23 104q-31 42 -86 42t-102 -42t-59 -104q-10 -63 22 -105q34 -42 87 -42q54 0 102 42q47 42 59 105z M733 413q-60 -3 -101.5 -36.5t-56.5 -71.5h289q-2 36 -36.5 69.5t-94.5 38.5z" />
<glyph unicode="&#x178;" horiz-adv-x="716" d="M592 611l-257 -283l-48 -274q-4 -22 -23 -38.5t-42 -16.5t-36.5 16t-9.5 39l49 274l-157 283q-10 19 -2.5 41t27.5 36q21 14 43.5 10.5t32.5 -22.5l131 -236l214 236q16 19 39.5 22.5t39.5 -10.5t16 -36t-17 -41zM497 920q27 0 42 -17.5t10 -44.5l-1 -7q-6 -27 -28.5 -44 t-49.5 -17q-28 0 -43.5 17t-9.5 44l1 7q5 27 28 44.5t51 17.5zM298 920q27 0 42 -17.5t10 -44.5l-1 -7q-6 -27 -28.5 -44t-49.5 -17q-28 0 -43.5 17t-9.5 44l1 7q5 27 28 44.5t51 17.5z" />
<glyph unicode="&#x2c6;" d="M314 662l-66 -45q-39 -27 -82 -27q-12 0 -18 5.5t-3 14.5q2 7 19 24l91 83q32 29 67 29h36q34 0 49 -29l41 -83q8 -15 5 -24q-6 -20 -35 -20q-40 0 -66 27z" />
<glyph unicode="&#x2dc;" d="M175 603q-13 -20 -33 -20q-15 0 -26 10t-11 23q0 9 4 23q17 46 40.5 68.5t61.5 22.5q30 0 79 -20t65 -20q29 0 46 32q13 20 33 20q15 0 26 -10t11 -23q0 -9 -4 -23q-17 -46 -40.5 -68.5t-61.5 -22.5q-30 0 -79 20t-65 20q-29 0 -46 -32z" />
<glyph unicode="&#x2000;" horiz-adv-x="475" />
<glyph unicode="&#x2001;" horiz-adv-x="950" />
<glyph unicode="&#x2002;" horiz-adv-x="475" />
<glyph unicode="&#x2003;" horiz-adv-x="950" />
<glyph unicode="&#x2004;" horiz-adv-x="316" />
<glyph unicode="&#x2005;" horiz-adv-x="237" />
<glyph unicode="&#x2006;" horiz-adv-x="158" />
<glyph unicode="&#x2007;" horiz-adv-x="158" />
<glyph unicode="&#x2008;" horiz-adv-x="118" />
<glyph unicode="&#x2009;" horiz-adv-x="190" />
<glyph unicode="&#x200a;" horiz-adv-x="52" />
<glyph unicode="&#x2010;" horiz-adv-x="408" d="M288 308h-186q-15 0 -25.5 10.5t-10.5 25.5t10.5 25.5t25.5 10.5h186q15 0 25 -10.5t10 -25.5t-10 -25.5t-25 -10.5z" />
<glyph unicode="&#x2011;" horiz-adv-x="408" d="M288 308h-186q-15 0 -25.5 10.5t-10.5 25.5t10.5 25.5t25.5 10.5h186q15 0 25 -10.5t10 -25.5t-10 -25.5t-25 -10.5z" />
<glyph unicode="&#x2013;" horiz-adv-x="528" d="M117 249q-23 0 -36 17t-6 40q6 24 27.5 41t44.5 17h312q23 0 35.5 -17t6.5 -41q-7 -23 -28 -40t-44 -17h-312z" />
<glyph unicode="&#x2014;" horiz-adv-x="898" d="M116 249q-23 0 -35 17t-5 40q7 24 28.5 41t44.5 17h682q23 0 35.5 -17t5.5 -41q-8 -23 -29.5 -40t-44.5 -17h-682z" />
<glyph unicode="&#x2018;" horiz-adv-x="230" d="M252 676q0 -20 -24 -27q-71 -22 -68 -89q24 -7 40.5 -25t16.5 -43v-8q0 -29 -19 -48t-49 -19q-33 0 -52.5 24t-19.5 64v10q0 98 50 146q41 43 94 43q31 0 31 -28z" />
<glyph unicode="&#x2019;" horiz-adv-x="230" d="M59 446q0 20 23 27q71 22 68 90q-24 6 -40.5 23.5t-16.5 43.5v8q0 29 19 48t49 19q33 0 52.5 -24t19.5 -64v-10q0 -97 -49 -146q-43 -43 -94 -43q-31 0 -31 28z" />
<glyph unicode="&#x201a;" horiz-adv-x="230" d="M54 -117q0 22 23 27q71 23 68 90q-24 7 -40.5 25t-16.5 43v8q0 29 19 48t49 19q34 0 53 -23.5t19 -64.5v-11q0 -95 -49 -146q-45 -43 -94 -43q-31 0 -31 28z" />
<glyph unicode="&#x201c;" horiz-adv-x="410" d="M484 676q0 -20 -24 -27q-71 -22 -68 -89q24 -7 40.5 -25t16.5 -43v-8q0 -29 -19 -48t-49 -19q-33 0 -52.5 24t-19.5 64v10q0 97 49 146q43 43 94 43q32 0 32 -28zM252 676q0 -20 -24 -27q-71 -22 -68 -89q24 -7 40.5 -25t16.5 -43v-8q0 -29 -19 -48t-49 -19 q-33 0 -52.5 24t-19.5 64v10q0 98 50 146q41 43 94 43q31 0 31 -28z" />
<glyph unicode="&#x201d;" horiz-adv-x="410" d="M59 446q0 20 23 27q71 22 68 90q-24 6 -40.5 23.5t-16.5 43.5v8q0 29 19 48t49 19q33 0 52.5 -24t19.5 -64v-10q0 -97 -49 -146q-43 -43 -94 -43q-31 0 -31 28zM290 446q0 20 24 27q71 22 68 90q-24 6 -40.5 23.5t-16.5 43.5v8q0 29 19 48t49 19q33 0 52.5 -24t19.5 -64 v-10q0 -98 -50 -146q-41 -43 -94 -43q-31 0 -31 28z" />
<glyph unicode="&#x201e;" horiz-adv-x="410" d="M54 -117q0 22 23 27q71 23 68 90q-24 7 -40.5 25t-16.5 43v8q0 29 19 48t49 19q34 0 53 -23.5t19 -64.5v-11q0 -95 -49 -146q-45 -43 -94 -43q-31 0 -31 28zM285 -117q0 22 24 27q71 23 68 90q-24 7 -40.5 25t-16.5 43v8q0 29 19 48t49 19q33 0 52.5 -24t19.5 -64v-11 q0 -96 -50 -146q-43 -43 -94 -43q-31 0 -31 28z" />
<glyph unicode="&#x2026;" horiz-adv-x="680" d="M181 50q0 -20 -14.5 -35t-34.5 -15t-35 15t-15 35t15 34.5t35 14.5t34.5 -14.5t14.5 -34.5zM399 50q0 -20 -14.5 -35t-34.5 -15t-35 15t-15 35t15 34.5t35 14.5t34.5 -14.5t14.5 -34.5zM617 50q0 -20 -14.5 -35t-34.5 -15t-35 15t-15 35t15 34.5t35 14.5t34.5 -14.5 t14.5 -34.5z" />
<glyph unicode="&#x202f;" horiz-adv-x="190" />
<glyph unicode="&#x205f;" horiz-adv-x="237" />
<glyph unicode="&#x2122;" horiz-adv-x="690" d="M24 677q6 24 29 24h182q10 0 15.5 -7t4.5 -17q-2 -10 -10.5 -16.5t-17.5 -6.5h-68l-40 -229q-6 -24 -29 -24q-9 0 -14.5 7t-3.5 17l40 229h-69q-9 0 -14.5 6.5t-4.5 16.5zM383 692l65 -119l106 119q9 10 22 9q10 0 15.5 -6.5t3.5 -16.5l-45 -252q-1 -10 -9 -17t-18 -7 t-15.5 7t-4.5 17l31 179l-76 -85q-9 -10 -21 -10h-1q-12 0 -18 10l-46 85l-31 -179q-5 -24 -29 -24q-22 0 -19 24l44 252q2 10 10 16.5t18 6.5h1q12 2 17 -9z" />
</font>
</defs>
</svg>
